скачать торрент трекер Friends
 
 Главная  •  Торренты  •  Новые релизы  •  Форум  •   •  Персоны кино  •  Правила  •  ЧаВо

Язык интерфейса
Язык интерфейса:


Привет, Гость
[15] из [15]
Введите Логин:
Введите Пароль:
Регистрация
Восстановить Пароль

Линки
АнекдотыБанкоматВсе теги / меткиДополнительные услугиТехподдержка

Главное Меню
 Главная Торренты Релизы за сегодня Персоны кино Запросы / Предложения (3) Правила ЧаВо Проверка BB кодов Топ 10 Архив новостей Прошлые опросы Форматы файлов Группы Последние комментарии Техподдержка

:: Детали раздачи
Торрент раздача является мультитрекерной — учтите, количество раздающих не будет совпадать с количеством участников на сайте (скачивание на клиентской стороне зависит от настроек uTorrent клиент программы, настройки -> Включить DHT, Обмен пирами и Поиск лок-х пиров).
Если висит надпись, пиры по нулям - не бойтесь, возможность скачать повторно торрент раздачу - есть. Попробуйте, в случае отказа - прокоментируйте или нажмите на "Позвать скачавших".

Новогодний переполох / Серии: 1-4 из 4 (Феликс Герчиков)

Скачать
Магнет
ПомощьКак скачать раздачу
Поделиться
Теги / Метки[Не выбрано]
Постер
Описаниеhttp://i52.fastpic.ru/big/2013/0103/6b/7b5e20159b19c1bbd4bb5c7ade21576b.pngНовогодний переполохhttp://i53.fastpic.ru/big/2013/0108/2e/bc957d4d831b93abf9bbfa884955822e.png[/img][img]http://i53.fastpic.ru/big/2013/0108/4b/62b593e883fe0e816b72
e9dec359f64b.pngГод выпуска:
2012
Производство:
ООО "ДТ Продакшн"
Жанр:
Семейная комедия
Режиссёр:
Феликс Герчиков

В ролях:
Мария Порошина, Даниил Спиваковский, Луиза-Габриэла Бровина, Сергей Чирков, Галина Петрова, Евгений Воскресенский, Нонна Гришаева, Владимир Стержаков, Татьяна Кравченко, Павел Прилучный, Игорь Письменный, Владимир Добрынин, Алина Кизиярова, Николай Сахаров, Ксения Непотребная

http://i53.fastpic.ru/big/2013/0103/fa/bc5e4ef41eada8e3398bdcc4033d14fa.png
С появлением молодого обаятельного мошенника Гарика в тихом провинциальном городке начинается настоящий Новогодний переполох с участием семейства Шишкиных, их родственников и коллег, деда Мороза и Снегурочки... и даже настоящего страуса.

Продолжительность: ~ 00:50:00[b]Группы[/b] http://static.rutracker.org/ranks/rg_torrents_logo.gif и http://i35.fastpic.ru/big/2012/0503/d2/e92dd6a5459971b9bfb28da90ed258d2.png желают всем приятного просмотра! Качество: SATRip [DVB by kostik184]
Формат: AVI
Видео кодек: XviD
Аудио кодек: MP3
Видео: 688x384 (1.79:1), 25 fps, XviD build 64 ~1436 kbps avg, 0.22 bit/pixel
Аудио: 48 kHz, MPEG Layer 3, 2 ch, ~128.00 kbps avgВсе раздачи сериалаРелиз:http://i35.fastpic.ru/big/2012/0503/d2/e92dd6a5459971b9bfb28da90ed258d2.png & http://i10.fastpic.ru/big/2010/0925/08/064dcf651bf3e359b31eaf38c3077b08.gif & http://static.rutracker.org/ranks/rg_torrents_logo.png

Сэмпл
http://multi-up.com/813936


MI
Общее
Полное имя : C:\Documents and Settings\Администратор\Рабочий стол\Новогодний_Переполох_02_SatRip_by_Дрек.avi
Формат : AVI
Формат/Информация : Audio Video Interleave
Размер файла : 556 Мбайт
Продолжительность : 49 м.
Общий поток : 1577 Кбит/сек
Программа кодирования : VirtualDubMod 1.5.10.3 | www.virtualdub-fr.org || (build 2550/release)
Библиотека кодирования : VirtualDubMod build 2550/release

Видео
Идентификатор : 0
Формат : MPEG-4 Visual
Профиль формата : Advanced Simple@L5
Параметр BVOP формата : 2
Параметр QPel формата : Нет
Параметр GMC формата : Без точки перехода
Параметр матрицы формата : Default (H.263)
Идентификатор кодека : XVID
Идентификатор кодека/Подсказка : XviD
Продолжительность : 49 м.
Битрейт : 1439 Кбит/сек
Ширина : 688 пикселей
Высота : 384 пикселя
Соотношение сторон : 16:9
Частота кадров : 25,000 кадров/сек
Цветовое пространство : YUV
Субдискретизация насыщенности : 4:2:0
Битовая глубина : 8 бит
Тип развёртки : Прогрессивная
Метод сжатия : С потерями
Бит/(Пиксели*Кадры) : 0.218
Размер потока : 507 Мбайт (91%)
Библиотека кодирования : XviD 64

Аудио
Идентификатор : 1
Формат : MPEG Audio
Версия формата : Version 1
Профиль формата : Layer 3
Идентификатор кодека : 55
Идентификатор кодека/Подсказка : MP3
Продолжительность : 49 м.
Вид битрейта : Постоянный
Битрейт : 128 Кбит/сек
Каналы : 2 канала
Частота : 48,0 КГц
Метод сжатия : С потерями
Размер потока : 45,1 Мбайт (8%)
Выравнивание : Соединение по промежуткам
Продолжительность промежутка : 40 мс. (1,00 видеокадр)
Время предзагрузки промежутка : 504 мс.
Библиотека кодирования : LAME3.99
Настройки программы : -m s -V 4 -q 2 -lowpass 17 -b 128

[img]http://i51.fastpic.ru/thumb/2013/0108/fc/82d1c2e1bde6f9231730fb4f039d51fc.jpeg[/img][img]http://i51.fastpic.ru/thumb/2013/0108/e7/635eab299cd8c0425677b862f1a3d4e7.jpeg[/img][img]http://i51.fastpic.ru/thumb/2013/0108/d7/1efd7c2b0f5bf86f99258cef63d557d7.jpeg[/img][img]http://i51.fastpic.ru/thumb/2013/0108/b5/6ff61d3045a7a38c82a56513885d36b5.jpeg[/img][img]http://i51.fastpic.ru/thumb/2013/0108/d9/595315c500b6996bea9d1133dd6de0d9.jpeg[/img][img]http://i51.fastpic.ru/thumb/2013/0108/d6/fba4ff73d221c73c56591fcb47e931d6.jpeg[/img][img]http://i51.fastpic.ru/thumb/2013/0108/50/96736ae9abe967eeb9338037ecc7bd50.jpeg" alt="http://i19.fastpic.ru/big/2011/0410/2c/f6f337b7a431c20dd4618c43f90f292c.png[/img][url=http://fastpic.ru/view/51/2013/0108/82d1c2e1bde6f9231730fb4 f039d51fc.png.html][img]http://i51.fastpic.ru/thumb/2013/0108/fc/82d1c2e1bde6f9231730fb4f039d51fc.jpeg[/img][img]http://i51.fastpic.ru/thumb/2013/0108/e7/635eab299cd8c0425677b862f1a3d4e7.jpeg[/img][img]http://i51.fastpic.ru/thumb/2013/0108/d7/1efd7c2b0f5bf86f99258cef63d557d7.jpeg[/img][img]http://i51.fastpic.ru/thumb/2013/0108/b5/6ff61d3045a7a38c82a56513885d36b5.jpeg[/img][img]http://i51.fastpic.ru/thumb/2013/0108/d9/595315c500b6996bea9d1133dd6de0d9.jpeg[/img][img]http://i51.fastpic.ru/thumb/2013/0108/d6/fba4ff73d221c73c56591fcb47e931d6.jpeg[/img][img]http://i51.fastpic.ru/thumb/2013/0108/50/96736ae9abe967eeb9338037ecc7bd50.jpeg" />
Скриншоты
Похожие файлы
Загрузка / Обновление
КатегорияСериалы RSS лента
Просмотров65 раз (a)
Взят0 раз (a)
Файлы4
Размер2.17 GB (2,330,867,712 байт)
Добавлен
РаздалViKa  (Искать торренты)
Участники
Участники - Загрузка / Обновление
Просматривают Просматривают Загрузка...

-†- ¿? -†-
« Предыдущая - † Страница † - Следующая »

:: Список Комментариев
Нет комментариев.

 Нет комментариев
Вам запрещенно редактировать, создать или удалять комментарии.
shpv© 2007-2014
Страничка сформирована за 0.136 секунд.
Яндекс.Метрика Rambler's Top100