скачать торрент трекер Friends
 
 Главная  •  Торренты  •  Новые релизы  •  Форум  •   •  Персоны кино  •  Правила  •  ЧаВо

Язык интерфейса
Язык интерфейса:


Привет, Гость
[15] из [15]
Введите Логин:
Введите Пароль:
Регистрация
Восстановить Пароль

Линки
АнекдотыБанкоматВсе теги / меткиДополнительные услугиТехподдержка

Главное Меню
 Главная Торренты Релизы за сегодня Персоны кино Запросы / Предложения (3) Правила ЧаВо Проверка BB кодов Топ 10 Архив новостей Прошлые опросы Форматы файлов Группы Последние комментарии Техподдержка

:: Детали раздачи
Торрент раздача является мультитрекерной — учтите, количество раздающих не будет совпадать с количеством участников на сайте (скачивание на клиентской стороне зависит от настроек uTorrent клиент программы, настройки -> Включить DHT, Обмен пирами и Поиск лок-х пиров).
Если висит надпись, пиры по нулям - не бойтесь, возможность скачать повторно торрент раздачу - есть. Попробуйте, в случае отказа - прокоментируйте или нажмите на "Позвать скачавших".

Интepны / Сезон: 1, 2, 3, 4, 5 / Серии: 1-100 из 100 (Максим Пежемский, Заур Болотаев, Милан Килибарда) [2010 г., Комедия, 10xDVD9] R5 "Флагман Трейд"

Скачать
Магнет
ПомощьКак скачать раздачу
Поделиться
Теги / Меткикомедия
Постер
Описаниеhttp://i32.fastpic.ru/big/2012/0102/0f/008a9a98371f037bae6324dfa1058d0f.png[/img][img]http://i28.fastpic.ru/big/2012/0102/ef/4e61146b90dabc5a008e
fced78a0a3ef.png[/img][img]http://i32.fastpic.ru/big/2012/0102/3a/7bba0f1f3b80c339fe8a43fa4709413a.png[/img][img]http://i28.fastpic.ru/big/2012/0102/a
0/ed2cbb95b6eedde9c2278f8dff4e23a0.png[/img][img]http://i32.fastpic.ru/big/2012/0102/d2/3d1b3611a6cdfa111982b0c5bf14b9d2.png[/img][img]http://i28.fast
pic.ru/big/2012/0102/8f/5a3cf7b340662026e00b27fc3a4a8f8f.png

Год выпуска: 2010
Страна: http://i29.fastpic.ru/big/2011/1018/94/6cf6830e936b89aca16e67dd1bc78294.jpg Россия
Жанр: Комедия
Продолжительность: ~ 2236 минут
Русские субтитры: нет

Режиссер: Максим Пежемский, Заур Болотаев, Милан Килибарда

В ролях: Иван Охлобыстин, Илья Глинников, Кристина Асмус, Александр Ильин мл., Дмитрий Шаракоис, Вадим Демчог, Светлана Камынина, Светлана Пермякова, Екатерина Радченко, Максим Артамонов

Описание: Можно ли развеселить людей с помощью таблеток и шприцов, но без побочных эффектов? Можно! - доказала команда интернов во главе с доктором Быковым. Молодые практиканты делают все, чтобы у Быкова было как можно больше поводов назвать их идиотами. Ботаник Левин, простак Лобанов, мажор Романенко и милая девушка Варя способны довести до белого каления не только своего научного руководителя, но и его коллег. Во втором сезоне всенародно любимого сериала все только обостряется! Смотреть каждый день после еды. Сочетается со всеми препаратами. Проведены успешные испытания на зрителях телеканала ТНТ. Минздрав не возражает.

http://i27.fastpic.ru/big/2012/0103/70/b31b36728623a35a183a97d6a2bf6270.png[/img][img]http://i32.fastpic.ru/big/2012/0103/91/c008b4d62dad2234cf0a
fd10198f4191.png[/img][img]http://i29.fastpic.ru/big/2012/0103/54/edba8b3d1b7773af713bc58f15dae054.png[/img][img]http://i30.fastpic.ru/big/2012/0103/e
9/b1440793795aef7b55173f2be5c9dee9.png[/img][img]http://i32.fastpic.ru/big/2012/0103/33/137245ed779cdb4219c14845f72fe433.png[/img][img]http://i30.fast
pic.ru/big/2012/0103/f9/afafdc7c56a523363a661aaf4f9d0df9.png[/img][img]http://i31.fastpic.ru/big/2012/0103/9a/720ef72c7443e0bfb89abaa6e48fdd9a.png[/im
g][img]http://i39.fastpic.ru/big/2012/0616/1e/3dd7ec4c66bb93f133a4e2661b2cc81e.png[/img][img]http://i40.fastpic.ru/big/2012/0819/45/d73bfc24bc149dee65
223796776a9045.png[/img][img]http://i42.fastpic.ru/big/2012/0819/94/00afc62546d2280f95530fede6966a94.png
Доп. информация:
Статичное меню; Бонусов нет.
Киностудия: ТНТ-телесеть. Дистрибьютор: Флагман Трейд.
Ссылка по фильму:
[КиноПоиск.ru]

Качество: DVD9 Сэмпл
Формат: DVD Video
Видео кодек: MPEG2
Аудио кодек: AC3
Видео: PAL 4:3 (720x576) VBR
Аудио: http://i29.fastpic.ru/big/2011/1018/94/6cf6830e936b89aca16e67dd1bc78294.jpg Русский DD 2.0 (192Kbps)

DVDInfo


disc 1
Title: disc 1
Size: 7.55 Gb ( 7 919 628,00 KBytes ) - DVD-9
Enabled regions: 1, 2, 3, 4, 5, 6, 7, 8

VTS_01 :
Play Length: 04:08:46
Video: PAL 4:3 (720x576) VBR
Audio:
Russian, AC3, 2/0 (L,R) ch, 192 kbps, Delay 0 mSec

* Menus Information *

VIDEO_TS Menu
Video:
PAL 4:3 (720x576) VBR
Russian Language Unit :
Title Menu

VTS_01 Menu
Video:
PAL 4:3 (720x576) VBR
Audio:
Not specified (Dolby AC3, 2 ch)
Russian Language Unit :
Root Menu
Chapter (PTT) Menu


disc 2
Title: disc 2
Size: 7.55 Gb ( 7 912 414,00 KBytes ) - DVD-9
Enabled regions: 1, 2, 3, 4, 5, 6, 7, 8

VTS_01 :
Play Length: 04:08:35
Video: PAL 4:3 (720x576) VBR
Audio:
Russian, AC3, 2/0 (L,R) ch, 192 kbps, Delay 0 mSec

* Menus Information *

VIDEO_TS Menu
Video:
PAL 4:3 (720x576) VBR
Russian Language Unit :
Title Menu

VTS_01 Menu
Video:
PAL 4:3 (720x576) VBR
Audio:
Not specified (Dolby AC3, 2 ch)
Russian Language Unit :
Root Menu
Chapter (PTT) Menu


disc 3
Title: disc 3
Size: 7.47 Gb ( 7 833 798,00 KBytes ) - DVD-9
Enabled regions: 1, 2, 3, 4, 5, 6, 7, 8

VTS_01 :
Play Length: 00:24:49+00:24:47+00:23:47+00:24:42+00:24:49+00:24:58+00:24:11+00:24:57+00:24:59+00:24:48
Video: PAL 4:3 (720x576) VBR
Audio:
Russian, AC3, 2/0 (L,R) ch, 192 kbps, Delay 0 mSec

* Menus Information *

VIDEO_TS Menu
Video:
PAL 4:3 (720x576) VBR
Russian Language Unit :
Title Menu

VTS_01 Menu
Video:
PAL 4:3 (720x576) VBR
Audio:
Not specified (Dolby AC3, 2 ch)
Russian Language Unit :
Root Menu


disc 4
Title: disc 4
Size: 7.42 Gb ( 7 776 772,00 KBytes ) - DVD-9
Enabled regions: 1, 2, 3, 4, 5, 6, 7, 8

VTS_01 :
Play Length: 00:24:57+00:24:58+00:24:57+00:24:02+00:24:57+00:23:50+00:24:56+00:24:58+00:25:02+00:23:49
Video: PAL 4:3 (720x576) VBR
Audio:
Russian, AC3, 2/0 (L,R) ch, 192 kbps, Delay 0 mSec

* Menus Information *

VIDEO_TS Menu
Video:
PAL 4:3 (720x576) VBR
Russian Language Unit :
Title Menu

VTS_01 Menu
Video:
PAL 4:3 (720x576) VBR
Audio:
Not specified (Dolby AC3, 2 ch)
Russian Language Unit :
Root Menu
Chapter (PTT) Menu


disc 5
Title: disc 5
Size: 7.55 Gb ( 7 913 684,00 KBytes ) - DVD-9
Enabled regions: 1, 2, 3, 4, 5, 6, 7, 8

VTS_01 :
Play Length: 00:25:00+00:24:54+00:24:00+00:23:53+00:24:26+00:24:36+00:24:27+00:23:01+00:23:02+00:23:05
Video: PAL 4:3 (720x576) VBR
Audio:
Russian, AC3, 2/0 (L,R) ch, 192 kbps, Delay 0 mSec

* Menus Information *

VIDEO_TS Menu
Video:
PAL 4:3 (720x576) VBR
Russian Language Unit :
Title Menu

VTS_01 Menu
Video:
PAL 4:3 (720x576) VBR
Audio:
Not specified (Dolby AC3, 2 ch)
Russian Language Unit :
Root Menu
Chapter (PTT) Menu


disc 6
Title: disc 6
Size: 7.79 Gb ( 8 172 160,00 KBytes ) - DVD-9
Enabled regions: 1, 2, 3, 4, 5, 6, 7, 8

VTS_01 :
Play Length: 00:24:43+00:24:45+00:24:44+00:24:48+00:24:33+00:24:52+00:24:58+00:24:55+00:24:58+00:24:56
Video: PAL 4:3 (720x576) VBR
Audio:
Russian, AC3, 2/0 (L,R) ch, 192 kbps, Delay 0 mSec

* Menus Information *

VIDEO_TS Menu
Video:
PAL 4:3 (720x576) VBR
Russian Language Unit :
Title Menu

VTS_01 Menu
Video:
PAL 4:3 (720x576) VBR
Audio:
Not specified (Dolby AC3, 2 ch)
Russian Language Unit :
Root Menu
Chapter (PTT) Menu


disc 7
Title: disc 7
Size: 7.55 Gb ( 7 920 700,00 KBytes ) - DVD-9
Enabled regions: 1, 2, 3, 4, 5, 6, 7, 8

VTS_01 :
Play Length: 00:24:56+00:23:26+00:24:40+00:23:12+00:23:47+00:24:55+00:24:04+00:24:09+00:24:09+00:23:41
Video: PAL 4:3 (720x576) VBR
Audio:
Russian, AC3, 2/0 (L,R) ch, 192 kbps, Delay 0 mSec

* Menus Information *

VIDEO_TS Menu
Video:
PAL 4:3 (720x576) VBR
Russian Language Unit :
Title Menu

VTS_01 Menu
Video:
PAL 4:3 (720x576) VBR
Audio:
Not specified (Dolby AC3, 2 ch)
Russian Language Unit :
Root Menu
Chapter (PTT) Menu


disc 8
Title: disc 8
Size: 7.55 Gb ( 7 913 456,00 KBytes ) - DVD-9
Enabled regions: 1, 2, 3, 4, 5, 6, 7, 8

VTS_01 :
Play Length: 00:24:55+00:24:11+00:23:13+00:24:55+00:24:50+00:23:44+00:23:40+00:24:05+00:23:01+00:24:11
Video: PAL 4:3 (720x576) VBR
Audio:
Russian, AC3, 2/0 (L,R) ch, 192 kbps, Delay 0 mSec

* Menus Information *

VIDEO_TS Menu
Video:
PAL 4:3 (720x576) VBR
Russian Language Unit :
Title Menu

VTS_01 Menu
Video:
PAL 4:3 (720x576) VBR
Audio:
Not specified (Dolby AC3, 2 ch)
Russian Language Unit :
Root Menu
Chapter (PTT) Menu


disc 9
Title: disc 9
Size: 7.61 Gb ( 7 975 304,00 KBytes ) - DVD-9
Enabled regions: 1, 2, 3, 4, 5, 6, 7, 8

VTS_01 :
Play Length: 00:24:53+00:24:43+00:24:34+00:24:47+00:24:54+00:24:59+00:24:59+00:24:28+00:24:58+00:24:48
Video: PAL 4:3 (720x576) VBR
Audio:
Russian, AC3, 2/0 (L,R) ch, 192 kbps, Delay 0 mSec

VTS_02 :
Play Length: 00:00:08
Video: PAL 4:3 (720x576) VBR

* Menus Information *

VIDEO_TS Menu
Video:
PAL 4:3 (720x576) VBR
Auto Pan&Scan, Auto Letterboxed
Russian Language Unit :
Title Menu

VTS_01 Menu
Video:
PAL 4:3 (720x576) VBR
Audio:
Not specified (Dolby AC3, 2 ch)
Russian Language Unit :
Root Menu

VTS_02 Menu
Video:
PAL 4:3 (720x576) VBR
Auto Pan&Scan, Auto Letterboxed
Language Unit :
Chapter (PTT) Menu


disc 10
Title: disc 10
Size: 7.35 Gb ( 7 707 756,00 KBytes ) - DVD-9
Enabled regions: 1, 2, 3, 4, 5, 6, 7, 8

VTS_01 :
Play Length: 00:24:53+00:24:41+00:24:29+00:24:58+00:23:36+00:24:19+00:25:00+00:24:17+00:24:27+00:24:50
Video: PAL 4:3 (720x576) VBR
Audio:
Russian, AC3, 2/0 (L,R) ch, 192 kbps, Delay 0 mSec

VTS_02 :
Play Length: 00:00:08
Video: PAL 4:3 (720x576) VBR

* Menus Information *

VIDEO_TS Menu
Video:
PAL 4:3 (720x576) VBR
Auto Pan&Scan, Auto Letterboxed
Russian Language Unit :
Title Menu

VTS_01 Menu
Video:
PAL 4:3 (720x576) VBR
Audio:
Not specified (Dolby AC3, 2 ch)
Russian Language Unit :
Root Menu

VTS_02 Menu
Video:
PAL 4:3 (720x576) VBR
Auto Pan&Scan, Auto Letterboxed
Language Unit :
Chapter (PTT) Menu




MediaInfo
Общее
Полное имя : D:\Torrents.ru\Interny 1-4 sezon (1-70 serii) 7xDVD9\disc 1\VIDEO_TS\VIDEO_TS.BUP
Формат : DVD Video
Профиль формата : Menu
Размер файла : 12,0 Кбайт
Режим общего битрейта : Переменный

Видео
Идентификатор : 224 (0xE0)
Формат : MPEG Video
Версия формата : Version 2
Вид битрейта : Переменный
Ширина : 720 пикселей
Высота : 576 пикселей
Соотношение сторон : 4:3
Частота кадров : 25,000 кадров/сек
Стандарт вещания : PAL
Метод сжатия : С потерями

Текст
Формат : RLE
Формат/Информация : Run-length encoding
Битовая глубина : 2 бит

Общее
Полное имя : D:\Torrents.ru\Interny 1-4 sezon (1-70 serii) 7xDVD9\disc 1\VIDEO_TS\VIDEO_TS.IFO
Формат : DVD Video
Профиль формата : Menu
Размер файла : 12,0 Кбайт
Режим общего битрейта : Переменный

Видео
Идентификатор : 224 (0xE0)
Формат : MPEG Video
Версия формата : Version 2
Вид битрейта : Переменный
Ширина : 720 пикселей
Высота : 576 пикселей
Соотношение сторон : 4:3
Частота кадров : 25,000 кадров/сек
Стандарт вещания : PAL
Метод сжатия : С потерями

Текст
Формат : RLE
Формат/Информация : Run-length encoding
Битовая глубина : 2 бит

Общее
Полное имя : D:\Torrents.ru\Interny 1-4 sezon (1-70 serii) 7xDVD9\disc 1\VIDEO_TS\VIDEO_TS.VOB
Формат : MPEG-PS
Размер файла : 3,08 Мбайт
Продолжительность : 8 с. 80 мс.
Режим общего битрейта : Переменный
Общий поток : 3202 Кбит/сек

Видео
Идентификатор : 224 (0xE0)
Формат : MPEG Video
Версия формата : Version 2
Профиль формата : Main@Main
Параметр BVOP формата : Да
Параметр матрицы формата : По умолчанию
Параметр GOP формата : M=3, N=10
Продолжительность : 8 с. 80 мс.
Вид битрейта : Переменный
Битрейт : 3138 Кбит/сек
Максимальный битрейт : 8000 Кбит/сек
Ширина : 720 пикселей
Высота : 576 пикселей
Соотношение сторон : 4:3
Частота кадров : 25,000 кадров/сек
Стандарт вещания : PAL
Цветовое пространство : YUV
Субдискретизация насыщенности : 4:2:0
Битовая глубина : 8 бит
Тип развёртки : Прогрессивная
Метод сжатия : С потерями
Бит/(Пиксели*Кадры) : 0.303
Размер потока : 3,02 Мбайт (98%)

Меню

Общее
Полное имя : D:\Torrents.ru\Interny 1-4 sezon (1-70 serii) 7xDVD9\disc 1\VIDEO_TS\VTS_01_0.BUP
Формат : DVD Video
Профиль формата : Program
Размер файла : 142 Кбайт
Продолжительность : 4 ч. 8 м.
Режим общего битрейта : Переменный
Общий поток : 77 бит/сек

Видео
Идентификатор : 224 (0xE0)
Формат : MPEG Video
Версия формата : Version 2
Продолжительность : 4 ч. 8 м.
Вид битрейта : Переменный
Ширина : 720 пикселей
Высота : 576 пикселей
Соотношение сторон : 4:3
Частота кадров : 25,000 кадров/сек
Стандарт вещания : PAL
Метод сжатия : С потерями

Аудио
Идентификатор : 128 (0x80)
Формат : AC-3
Формат/Информация : Audio Coding 3
Продолжительность : 4 ч. 8 м.
Каналы : 2 канала
Частота : 48,0 КГц
Метод сжатия : С потерями
Язык : Russian

Меню
Продолжительность : 4 ч. 8 м.
00:00:00.000 : Chapter 1
00:25:09.960 : Chapter 2
00:50:19.760 : Chapter 3
01:15:17.040 : Chapter 4
01:40:15.360 : Chapter 5
02:05:24.480 : Chapter 6
02:29:01.560 : Chapter 7
02:54:08.000 : Chapter 8
03:19:17.080 : Chapter 9
03:44:25.480 : Chapter 10
List (Audio) : 0

Общее
Полное имя : D:\Torrents.ru\Interny 1-4 sezon (1-70 serii) 7xDVD9\disc 1\VIDEO_TS\VTS_01_0.IFO
Формат : DVD Video
Профиль формата : Program
Размер файла : 142 Кбайт
Продолжительность : 4 ч. 8 м.
Режим общего битрейта : Переменный
Общий поток : 77 бит/сек

Видео
Идентификатор : 224 (0xE0)
Формат : MPEG Video
Версия формата : Version 2
Продолжительность : 4 ч. 8 м.
Вид битрейта : Переменный
Ширина : 720 пикселей
Высота : 576 пикселей
Соотношение сторон : 4:3
Частота кадров : 25,000 кадров/сек
Стандарт вещания : PAL
Метод сжатия : С потерями

Аудио
Идентификатор : 128 (0x80)
Формат : AC-3
Формат/Информация : Audio Coding 3
Продолжительность : 4 ч. 8 м.
Каналы : 2 канала
Частота : 48,0 КГц
Метод сжатия : С потерями
Язык : Russian

Меню
Продолжительность : 4 ч. 8 м.
00:00:00.000 : Chapter 1
00:25:09.960 : Chapter 2
00:50:19.760 : Chapter 3
01:15:17.040 : Chapter 4
01:40:15.360 : Chapter 5
02:05:24.480 : Chapter 6
02:29:01.560 : Chapter 7
02:54:08.000 : Chapter 8
03:19:17.080 : Chapter 9
03:44:25.480 : Chapter 10
List (Audio) : 0

Общее
Полное имя : D:\Torrents.ru\Interny 1-4 sezon (1-70 serii) 7xDVD9\disc 1\VIDEO_TS\VTS_01_0.VOB
Формат : MPEG-PS
Размер файла : 91,9 Мбайт
Продолжительность : 1 м. 24 с.
Режим общего битрейта : Переменный
Общий поток : 9075 Кбит/сек

Видео
Идентификатор : 224 (0xE0)
Формат : MPEG Video
Версия формата : Version 2
Профиль формата : Main@Main
Параметр BVOP формата : Да
Параметр матрицы формата : Выборочная
Продолжительность : 1 м. 24 с.
Вид битрейта : Переменный
Битрейт : 8703 Кбит/сек
Ширина : 720 пикселей
Высота : 576 пикселей
Соотношение сторон : 4:3
Частота кадров : 25,000 кадров/сек
Стандарт вещания : PAL
Цветовое пространство : YUV
Субдискретизация насыщенности : 4:2:0
Битовая глубина : 8 бит
Метод сжатия : С потерями
Бит/(Пиксели*Кадры) : 0.839
Размер потока : 88,1 Мбайт (96%)

Аудио
Идентификатор : 189 (0xBD)-128 (0x80)
Формат : AC-3
Формат/Информация : Audio Coding 3
Расширение режима : CM (complete main)
Режим смешивания : DVD-Video
Продолжительность : 1 м. 24 с.
Вид битрейта : Постоянный
Битрейт : 192 Кбит/сек
Каналы : 2 канала
Расположение каналов : Front: L R
Частота : 48,0 КГц
Битовая глубина : 16 бит
Метод сжатия : С потерями
Размер потока : 1,94 Мбайт (2%)

Текст
Идентификатор : 189 (0xBD)-32 (0x20)
Формат : RLE
Формат/Информация : Run-length encoding
Режим смешивания : DVD-Video

Меню

Общее
Полное имя : D:\Torrents.ru\Interny 1-4 sezon (1-70 serii) 7xDVD9\disc 1\VIDEO_TS\VTS_01_1.VOB
Формат : MPEG-PS
Размер файла : 1024 Мбайт
Продолжительность : 7 м. 30 с.
Режим общего битрейта : Переменный
Общий поток : 19,1 Мбит/сек

Видео
Идентификатор : 224 (0xE0)
Формат : MPEG Video
Версия формата : Version 2
Профиль формата : Main@Main
Параметр BVOP формата : Да
Параметр матрицы формата : Выборочная
Продолжительность : 7 м. 30 с.
Вид битрейта : Переменный
Битрейт : 18,5 Мбит/сек
Максимальный битрейт : 9000 Кбит/сек
Ширина : 720 пикселей
Высота : 576 пикселей
Соотношение сторон : 4:3
Частота кадров : 25,000 кадров/сек
Стандарт вещания : PAL
Цветовое пространство : YUV
Субдискретизация насыщенности : 4:2:0
Битовая глубина : 8 бит
Тип развёртки : Чересстрочная
Порядок развёртки : Верхнее поле первое
Метод сжатия : С потерями
Бит/(Пиксели*Кадры) : 1.783
Размер потока : 993 Мбайт (97%)

Аудио
Идентификатор : 189 (0xBD)-128 (0x80)
Формат : AC-3
Формат/Информация : Audio Coding 3
Расширение режима : CM (complete main)
Режим смешивания : DVD-Video
Продолжительность : 7 м. 30 с.
Вид битрейта : Постоянный
Битрейт : 192 Кбит/сек
Каналы : 2 канала
Расположение каналов : Front: L R
Частота : 48,0 КГц
Битовая глубина : 16 бит
Метод сжатия : С потерями
Размер потока : 10,3 Мбайт (1%)

Меню

Общее
Полное имя : D:\Torrents.ru\Interny 1-4 sezon (1-70 serii) 7xDVD9\disc 1\VIDEO_TS\VTS_01_2.VOB
Формат : MPEG-PS
Размер файла : 1024 Мбайт
Продолжительность : 8 м. 44 с.
Режим общего битрейта : Переменный
Общий поток : 16,4 Мбит/сек

Видео
Идентификатор : 224 (0xE0)
Формат : MPEG Video
Версия формата : Version 2
Профиль формата : Main@Main
Параметр BVOP формата : Да
Параметр матрицы формата : Выборочная
Продолжительность : 8 м. 44 с.
Вид битрейта : Переменный
Битрейт : 15,9 Мбит/сек
Максимальный битрейт : 9000 Кбит/сек
Ширина : 720 пикселей
Высота : 576 пикселей
Соотношение сторон : 4:3
Частота кадров : 25,000 кадров/сек
Стандарт вещания : PAL
Цветовое пространство : YUV
Субдискретизация насыщенности : 4:2:0
Битовая глубина : 8 бит
Тип развёртки : Чересстрочная
Порядок развёртки : Верхнее поле первое
Метод сжатия : С потерями
Бит/(Пиксели*Кадры) : 1.530
Размер потока : 992 Мбайт (97%)

Аудио
Идентификатор : 189 (0xBD)-128 (0x80)
Формат : AC-3
Формат/Информация : Audio Coding 3
Расширение режима : CM (complete main)
Режим смешивания : DVD-Video
Продолжительность : 8 м. 44 с.
Вид битрейта : Постоянный
Битрейт : 192 Кбит/сек
Каналы : 2 канала
Расположение каналов : Front: L R
Частота : 48,0 КГц
Битовая глубина : 16 бит
Метод сжатия : С потерями
Задержка видео : -400 мс.
Размер потока : 12,0 Мбайт (1%)

Меню

Общее
Полное имя : D:\Torrents.ru\Interny 1-4 sezon (1-70 serii) 7xDVD9\disc 1\VIDEO_TS\VTS_01_3.VOB
Формат : MPEG-PS
Размер файла : 1024 Мбайт
Продолжительность : 8 м. 29 с.
Режим общего битрейта : Переменный
Общий поток : 16,9 Мбит/сек

Видео
Идентификатор : 224 (0xE0)
Формат : MPEG Video
Версия формата : Version 2
Профиль формата : Main@Main
Параметр BVOP формата : Да
Параметр матрицы формата : Выборочная
Продолжительность : 8 м. 29 с.
Вид битрейта : Переменный
Битрейт : 16,3 Мбит/сек
Максимальный битрейт : 9000 Кбит/сек
Ширина : 720 пикселей
Высота : 576 пикселей
Соотношение сторон : 4:3
Частота кадров : 25,000 кадров/сек
Стандарт вещания : PAL
Цветовое пространство : YUV
Субдискретизация насыщенности : 4:2:0
Битовая глубина : 8 бит
Тип развёртки : Чересстрочная
Порядок развёртки : Верхнее поле первое
Метод сжатия : С потерями
Бит/(Пиксели*Кадры) : 1.575
Размер потока : 992 Мбайт (97%)

Аудио
Идентификатор : 189 (0xBD)-128 (0x80)
Формат : AC-3
Формат/Информация : Audio Coding 3
Расширение режима : CM (complete main)
Режим смешивания : DVD-Video
Продолжительность : 8 м. 29 с.
Вид битрейта : Постоянный
Битрейт : 192 Кбит/сек
Каналы : 2 канала
Расположение каналов : Front: L R
Частота : 48,0 КГц
Битовая глубина : 16 бит
Метод сжатия : С потерями
Задержка видео : -384 мс.
Размер потока : 11,7 Мбайт (1%)

Меню

Общее
Полное имя : D:\Torrents.ru\Interny 1-4 sezon (1-70 serii) 7xDVD9\disc 1\VIDEO_TS\VTS_01_4.VOB
Формат : MPEG-PS
Размер файла : 1024 Мбайт
Продолжительность : 11 с.
Режим общего битрейта : Переменный
Общий поток : 778 Мбит/сек

Видео
Идентификатор : 224 (0xE0)
Формат : MPEG Video
Версия формата : Version 2
Профиль формата : Main@Main
Параметр BVOP формата : Да
Параметр матрицы формата : Выборочная
Параметр GOP формата : M=3, N=12
Продолжительность : 11 с.
Вид битрейта : Переменный
Битрейт : 762 Мбит/сек
Максимальный битрейт : 9000 Кбит/сек
Ширина : 720 пикселей
Высота : 576 пикселей
Соотношение сторон : 4:3
Частота кадров : 25,000 кадров/сек
Стандарт вещания : PAL
Цветовое пространство : YUV
Субдискретизация насыщенности : 4:2:0
Битовая глубина : 8 бит
Тип развёртки : Чересстрочная
Порядок развёртки : Верхнее поле первое
Метод сжатия : С потерями
Бит/(Пиксели*Кадры) : 73.534
Размер потока : 1003 Мбайт (98%)

Аудио
Идентификатор : 189 (0xBD)-128 (0x80)
Формат : AC-3
Формат/Информация : Audio Coding 3
Расширение режима : CM (complete main)
Режим смешивания : DVD-Video
Продолжительность : 11 с.
Вид битрейта : Постоянный
Битрейт : 192 Кбит/сек
Каналы : 2 канала
Расположение каналов : Front: L R
Частота : 48,0 КГц
Битовая глубина : 16 бит
Метод сжатия : С потерями
Задержка видео : -728 мс.
Размер потока : 259 Кбайт (0%)

Меню

Общее
Полное имя : D:\Torrents.ru\Interny 1-4 sezon (1-70 serii) 7xDVD9\disc 1\VIDEO_TS\VTS_01_5.VOB
Формат : MPEG-PS
Размер файла : 1024 Мбайт
Продолжительность : 10 м.
Режим общего битрейта : Переменный
Общий поток : 14,1 Мбит/сек

Видео
Идентификатор : 224 (0xE0)
Формат : MPEG Video
Версия формата : Version 2
Профиль формата : Main@Main
Параметр BVOP формата : Да
Параметр матрицы формата : Выборочная
Параметр GOP формата : M=3, N=12
Продолжительность : 10 м.
Вид битрейта : Переменный
Битрейт : 13,6 Мбит/сек
Максимальный битрейт : 9000 Кбит/сек
Ширина : 720 пикселей
Высота : 576 пикселей
Соотношение сторон : 4:3
Частота кадров : 25,000 кадров/сек
Стандарт вещания : PAL
Цветовое пространство : YUV
Субдискретизация насыщенности : 4:2:0
Битовая глубина : 8 бит
Тип развёртки : Чересстрочная
Порядок развёртки : Верхнее поле первое
Метод сжатия : С потерями
Бит/(Пиксели*Кадры) : 1.314
Размер потока : 989 Мбайт (97%)

Аудио
Идентификатор : 189 (0xBD)-128 (0x80)
Формат : AC-3
Формат/Информация : Audio Coding 3
Расширение режима : CM (complete main)
Режим смешивания : DVD-Video
Продолжительность : 10 м.
Вид битрейта : Постоянный
Битрейт : 192 Кбит/сек
Каналы : 2 канала
Расположение каналов : Front: L R
Частота : 48,0 КГц
Битовая глубина : 16 бит
Метод сжатия : С потерями
Задержка видео : -528 мс.
Размер потока : 13,9 Мбайт (1%)

Меню

Общее
Полное имя : D:\Torrents.ru\Interny 1-4 sezon (1-70 serii) 7xDVD9\disc 1\VIDEO_TS\VTS_01_6.VOB
Формат : MPEG-PS
Размер файла : 1024 Мбайт
Продолжительность : 9 с. 680 мс.
Режим общего битрейта : Переменный
Общий поток : 887 Мбит/сек

Видео
Идентификатор : 224 (0xE0)
Формат : MPEG Video
Версия формата : Version 2
Профиль формата : Main@Main
Параметр BVOP формата : Да
Параметр матрицы формата : Выборочная
Параметр GOP формата : M=3, N=12
Продолжительность : 9 с. 680 мс.
Вид битрейта : Переменный
Битрейт : 870 Мбит/сек
Максимальный битрейт : 9000 Кбит/сек
Ширина : 720 пикселей
Высота : 576 пикселей
Соотношение сторон : 4:3
Частота кадров : 25,000 кадров/сек
Стандарт вещания : PAL
Цветовое пространство : YUV
Субдискретизация насыщенности : 4:2:0
Битовая глубина : 8 бит
Тип развёртки : Чересстрочная
Порядок развёртки : Верхнее поле первое
Метод сжатия : С потерями
Бит/(Пиксели*Кадры) : 83.867
Размер потока : 1003 Мбайт (98%)

Аудио
Идентификатор : 189 (0xBD)-128 (0x80)
Формат : AC-3
Формат/Информация : Audio Coding 3
Расширение режима : CM (complete main)
Режим смешивания : DVD-Video
Продолжительность : 9 с. 680 мс.
Вид битрейта : Постоянный
Битрейт : 192 Кбит/сек
Каналы : 2 канала
Расположение каналов : Front: L R
Частота : 48,0 КГц
Битовая глубина : 16 бит
Метод сжатия : С потерями
Задержка видео : -280 мс.
Размер потока : 227 Кбайт (0%)

Меню

Общее
Полное имя : D:\Torrents.ru\Interny 1-4 sezon (1-70 serii) 7xDVD9\disc 1\VIDEO_TS\VTS_01_7.VOB
Формат : MPEG-PS
Размер файла : 1024 Мбайт
Продолжительность : 7 м. 54 с.
Режим общего битрейта : Переменный
Общий поток : 18,1 Мбит/сек

Видео
Идентификатор : 224 (0xE0)
Формат : MPEG Video
Версия формата : Version 2
Профиль формата : Main@Main
Параметр BVOP формата : Да
Параметр матрицы формата : Выборочная
Продолжительность : 7 м. 54 с.
Вид битрейта : Переменный
Битрейт : 17,5 Мбит/сек
Максимальный битрейт : 9000 Кбит/сек
Ширина : 720 пикселей
Высота : 576 пикселей
Соотношение сторон : 4:3
Частота кадров : 25,000 кадров/сек
Стандарт вещания : PAL
Цветовое пространство : YUV
Субдискретизация насыщенности : 4:2:0
Битовая глубина : 8 бит
Тип развёртки : Чересстрочная
Порядок развёртки : Верхнее поле первое
Метод сжатия : С потерями
Бит/(Пиксели*Кадры) : 1.692
Размер потока : 992 Мбайт (97%)

Аудио
Идентификатор : 189 (0xBD)-128 (0x80)
Формат : AC-3
Формат/Информация : Audio Coding 3
Расширение режима : CM (complete main)
Режим смешивания : DVD-Video
Продолжительность : 7 м. 54 с.
Вид битрейта : Постоянный
Битрейт : 192 Кбит/сек
Каналы : 2 канала
Расположение каналов : Front: L R
Частота : 48,0 КГц
Битовая глубина : 16 бит
Метод сжатия : С потерями
Задержка видео : -512 мс.
Размер потока : 10,9 Мбайт (1%)

Меню

Общее
Полное имя : D:\Torrents.ru\Interny 1-4 sezon (1-70 serii) 7xDVD9\disc 1\VIDEO_TS\VTS_01_8.VOB
Формат : MPEG-PS
Размер файла : 471 Мбайт
Продолжительность : 15 м.
Режим общего битрейта : Переменный
Общий поток : 4245 Кбит/сек

Видео
Идентификатор : 224 (0xE0)
Формат : MPEG Video
Версия формата : Version 2
Профиль формата : Main@Main
Параметр BVOP формата : Да
Параметр матрицы формата : Выборочная
Продолжительность : 15 м.
Вид битрейта : Переменный
Битрейт : 3969 Кбит/сек
Максимальный битрейт : 9000 Кбит/сек
Ширина : 720 пикселей
Высота : 576 пикселей
Соотношение сторон : 4:3
Частота кадров : 25,000 кадров/сек
Стандарт вещания : PAL
Цветовое пространство : YUV
Субдискретизация насыщенности : 4:2:0
Битовая глубина : 8 бит
Тип развёртки : Чересстрочная
Порядок развёртки : Верхнее поле первое
Метод сжатия : С потерями
Бит/(Пиксели*Кадры) : 0.383
Размер потока : 440 Мбайт (93%)

Аудио
Идентификатор : 189 (0xBD)-128 (0x80)
Формат : AC-3
Формат/Информация : Audio Coding 3
Расширение режима : CM (complete main)
Режим смешивания : DVD-Video
Продолжительность : 15 м.
Вид битрейта : Постоянный
Битрейт : 192 Кбит/сек
Каналы : 2 канала
Расположение каналов : Front: L R
Частота : 48,0 КГц
Битовая глубина : 16 бит
Метод сжатия : С потерями
Задержка видео : -624 мс.
Размер потока : 21,3 Мбайт (5%)

Меню


Скриншоты
http://i27.fastpic.ru/thumb/2012/0103/36/e0513f2ae07fd0e2c99e190bb9bf2f36.jpeg http://i28.fastpic.ru/thumb/2012/0103/0c/bc0f8f5e124b3b208dd855e7859af70c.jpeg http://i30.fastpic.ru/thumb/2012/0103/9f/9d6b947f58cdad2b234bedb9af604c9f.jpeg http://i31.fastpic.ru/thumb/2012/0103/ee/e031f933e3d256972b856674d4f770ee.jpeg http://i30.fastpic.ru/thumb/2012/0103/66/90e2744d63706408c96fa389181f8266.jpeg
http://i27.fastpic.ru/thumb/2012/0103/32/86e9d3bf2ad1def007c8deeb32cfd732.jpeg http://i29.fastpic.ru/thumb/2012/0103/63/78adbaeba3c50509e5bc5c2511403e63.jpeg http://i28.fastpic.ru/thumb/2012/0103/21/bbb8717df36827f9c4e26dfe2b99cc21.jpeg http://i30.fastpic.ru/thumb/2012/0103/57/380aa280d7009969e0ddb6636e172e57.jpeg http://i30.fastpic.ru/thumb/2012/0103/51/ecadcff99573e238d0cbfead74684551.jpeg
http://i29.fastpic.ru/thumb/2012/0103/2b/6499a0df8f40ef513f485aa30111602b.jpeg http://i29.fastpic.ru/thumb/2012/0103/f7/a117d9183cb69a64a9b2fab07a2311f7.jpeg http://i32.fastpic.ru/thumb/2012/0103/d5/6a382d732a691437c9ba273b230a6fd5.jpeg http://i28.fastpic.ru/thumb/2012/0103/7c/8e860e74a9bb6b48fd7b273b49b4547c.jpeg http://i27.fastpic.ru/thumb/2012/0103/aa/e0009b5ec440855385795bc33c0278aa.jpeg
http://i28.fastpic.ru/thumb/2012/0103/83/a0946f96b1c15811140918d80a75cb83.jpeg http://i32.fastpic.ru/thumb/2012/0103/da/d334e7ebf68a6d6f651b12311d846eda.jpeg http://i27.fastpic.ru/thumb/2012/0103/86/01f2dc5816aaf386e09143c7d3341b86.jpeg http://i30.fastpic.ru/thumb/2012/0103/21/ddc6443d4a87d391eb6abc438003a621.jpeg http://i31.fastpic.ru/thumb/2012/0103/6d/ed5afb9a2946e68c6de8766f57b50f6d.jpeg
http://i28.fastpic.ru/thumb/2012/0103/b3/adbbab13673535c4926f79f2426b98b3.jpeg http://i28.fastpic.ru/thumb/2012/0103/43/71e53747ef2cdb1172b10439db128143.jpeg http://i32.fastpic.ru/thumb/2012/0103/4f/382d11f0cb69814152e7184069fe924f.jpeg http://i31.fastpic.ru/thumb/2012/0103/ac/b746bba16026dfb5eadcd7daa00d15ac.jpeg http://i31.fastpic.ru/thumb/2012/0103/6f/858388015b89f5df822f9057db72d96f.jpeg
http://i31.fastpic.ru/thumb/2012/0103/56/4bca296919ac455e857f1da15ae21156.jpeg http://i27.fastpic.ru/thumb/2012/0103/f0/6cc286162e9c20f98ea9eacb8b9cddf0.jpeg http://i27.fastpic.ru/thumb/2012/0103/70/92073374c59dc064873cc5da3d62a270.jpeg http://i32.fastpic.ru/thumb/2012/0103/ea/30e778d25e1ed705f8e350f28fca76ea.jpeg http://i32.fastpic.ru/thumb/2012/0103/e0/3c9c6a60f870ecda6b3e2136b2743de0.jpeg
http://i31.fastpic.ru/thumb/2012/0103/f3/a5753de1270e622426a954d1c18106f3.jpeg http://i27.fastpic.ru/thumb/2012/0103/62/e8a3bdc75ced379691fc316fde302062.jpeg http://i30.fastpic.ru/thumb/2012/0103/25/354e4561b5584a3d9eacb7727bd46325.jpeg http://i30.fastpic.ru/thumb/2012/0103/39/4242ecfd258e49d86518b896e352a239.jpeg http://i27.fastpic.ru/thumb/2012/0103/dd/fee0adb79a7977956a0548c4b8ebc5dd.jpeg
http://i28.fastpic.ru/thumb/2012/0216/fa/5f99bb1d327559a64f72657910293dfa.jpeg http://i32.fastpic.ru/thumb/2012/0216/23/b55c9d8f524b3839fb8689cea64beb23.jpeg http://i31.fastpic.ru/thumb/2012/0216/16/b9b3fa5a5d0e7546d2ef7f0c7aaf0a16.jpeg http://i28.fastpic.ru/thumb/2012/0216/19/478d3f86dd0e13bbc1441e383e7eb119.jpeg http://i29.fastpic.ru/thumb/2012/0216/c0/b8fadddd9a6fb2535ff6cca7536d1cc0.jpeg
http://i39.fastpic.ru/thumb/2012/0616/9a/5eb0247feef70e51881d0d06f0f2649a.jpeg http://i39.fastpic.ru/thumb/2012/0616/41/e5e6605f62b2fc6b541ec547baf4c641.jpeg http://i39.fastpic.ru/thumb/2012/0616/aa/59dff7182e1e6f57d9d85f1ab26248aa.jpeg http://i39.fastpic.ru/thumb/2012/0616/a0/e8d94617c831f7b27327de7353bd03a0.jpeg http://i39.fastpic.ru/thumb/2012/0616/8c/1cc0bf9c42226a0233b478fe30d61a8c.jpeg
http://i40.fastpic.ru/thumb/2012/0818/89/63ba6855fe9afe5e4d3636f27f142a89.jpeg http://i43.fastpic.ru/thumb/2012/0818/67/e55af49b7e62c61fbf4d237f4436eb67.jpeg http://i40.fastpic.ru/thumb/2012/0818/15/5cc278a324269398e1adccc0d1569c15.jpeg http://i42.fastpic.ru/thumb/2012/0818/d7/04356a750c60c7c53778737d24fdbad7.jpeg http://i41.fastpic.ru/thumb/2012/0818/b8/384c200b1ff78939b42b051c62a347b8.jpeg


Обложка 300 dpi
Только какие есть, других пока нет нигде.
http://i31.fastpic.ru/thumb/2012/0103/3b/0b09d567e32d6476782039d8185b803b.jpeg http://i31.fastpic.ru/thumb/2012/0103/15/8880b907febe444de38ad239388af915.jpeg http://i31.fastpic.ru/thumb/2012/0103/f3/1a8e68d5822ad0bec1c6a585d24695f3.jpeg http://i31.fastpic.ru/thumb/2012/0103/61/9ff494d1d3e66a9ea40d61c03935ac61.jpeg
http://i31.fastpic.ru/thumb/2012/0103/08/22ce577fee012fcd1dcc64cb5b1bb708.jpeg http://i32.fastpic.ru/thumb/2012/0103/23/26b492b12974a75759653f86b338d323.jpeg http://i32.fastpic.ru/thumb/2012/0103/a5/6f8d8b6b81629f0f20ae1ece5b12d2a5.jpeg http://i28.fastpic.ru/thumb/2012/0103/a8/e486ed81d0deef062c112baecfc4a5a8.jpeg
http://i32.fastpic.ru/thumb/2012/0103/96/6ccabd729a747f24e0f010d351cd3f96.jpeg http://i31.fastpic.ru/thumb/2012/0103/1e/33d1222073af6d4a4e458cee98064b1e.jpeg http://i32.fastpic.ru/thumb/2012/0103/de/376c40b1356facf18f4db2587d8514de.jpeg http://i30.fastpic.ru/thumb/2012/0103/db/2d3f7ce843b4606ac2ced4058d0329db.jpeg
http://i32.fastpic.ru/thumb/2012/0103/a1/6a2355444d79604609597c2322112aa1.jpeg http://i30.fastpic.ru/thumb/2012/0103/ce/90db1ed5b97088684c581285986be7ce.jpeg
http://i39.fastpic.ru/thumb/2012/0616/33/33f50f79382194e44889c73a78611133.jpeg
Последнего диска пока нет, как появится выложу.


Лицензия этого издания
http://www.ozon.ru/context/detail/id/5241554/?item=5426210
http://www.ozon.ru/context/detail/id/5355494/?item=5439674
http://www.ozon.ru/context/detail/id/5426343/?item=5502486
http://www.ozon.ru/context/detail/id/5564475/?item=5562726
http://www.ozon.ru/context/detail/id/6195323/?item=6273486
http://www.ozon.ru/context/detail/id/6275363/?item=6430880
http://www.ozon.ru/context/detail/id/7379843/?item=7479839
http://www.ozon.ru/context/detail/id/7582141/?item=7580229
http://www.ozon.ru/context/detail/id/17516969/?item=17440355
http://www.ozon.ru/context/detail/id/18191468/?item=18160549
http://i27.fastpic.ru/big/2012/0103/f8/1f705c26ab8e74bf4eba141ed85a67f8.png
http://i28.fastpic.ru/big/2012/0103/f7/9f33dfeb5cd38192d66e7ed0430273f7.png
http://i30.fastpic.ru/big/2012/0103/98/0dbe9f451b5b2d652d593e27d6ab3998.png
http://i31.fastpic.ru/big/2012/0103/ad/997321808cc560c4aa5c3a4ff8606bad.png
http://i30.fastpic.ru/big/2012/0103/dd/a69902b90cc0b83b78f5c24cec17e6dd.png
http://i29.fastpic.ru/big/2012/0103/72/53c1156abe97b2ef3a5c72c9f5d30072.png
http://i27.fastpic.ru/big/2012/0103/32/52c5d31da17b4a4fa55c693df9619932.png
http://i31.fastpic.ru/big/2012/0216/c1/f6ba3ba1bd32521f022717574cf0c6c1.png
http://i39.fastpic.ru/big/2012/0616/a3/e0a2d976fabf576a067d2b5367850ca3.png
http://i42.fastpic.ru/big/2012/0818/d0/ecc1cf97ed5ee0c12aea71005870b3d0.png

Все раздачи сериала
Коврики + блины (400 dpi) – прилагаются в папке! Региональная защита снята!
Внимание! Диски DVD5 и DVD9 рекомендуется записывать программой ImgBurn.
Раздача от:http://youtracker.net/img/rg.gif
Скриншоты
Похожие файлы
Загрузка / Обновление
КатегорияСериалы RSS лента
Просмотров81 раз (a)
Взят0 раз (a)
Файлы158
Размер75.44 GB (80,998,197,455 байт)
Добавлен
РаздалViKa  (Искать торренты)
Участники
Участники - Загрузка / Обновление
Просматривают Просматривают Загрузка...

-†- ¿? -†-
« Предыдущая - † Страница † - Следующая »

:: Список Комментариев
Нет комментариев.

 Нет комментариев
Вам запрещенно редактировать, создать или удалять комментарии.
shpv© 2007-2014
Страничка сформирована за 0.069 секунд.
Яндекс.Метрика Rambler's Top100