скачать торрент трекер Friends
 
 Главная  •  Торренты  •  Новые релизы  •  Форум  •   •  Персоны кино  •  Правила  •  ЧаВо

Язык интерфейса
Язык интерфейса:


Привет, Гость
[15] из [15]
Введите Логин:
Введите Пароль:
Регистрация
Восстановить Пароль

Линки
АнекдотыБанкоматВсе теги / меткиДополнительные услугиТехподдержка

Главное Меню
 Главная Торренты Релизы за сегодня Персоны кино Запросы / Предложения (3) Правила ЧаВо Проверка BB кодов Топ 10 Архив новостей Прошлые опросы Форматы файлов Группы Последние комментарии Техподдержка

:: Детали раздачи
Торрент раздача является мультитрекерной — учтите, количество раздающих не будет совпадать с количеством участников на сайте (скачивание на клиентской стороне зависит от настроек uTorrent клиент программы, настройки -> Включить DHT, Обмен пирами и Поиск лок-х пиров).
Если висит надпись, пиры по нулям - не бойтесь, возможность скачать повторно торрент раздачу - есть. Попробуйте, в случае отказа - прокоментируйте или нажмите на "Позвать скачавших".

И все-таки я люблю... / Серии: 1-24 из 24 (Сергей Гинзбург) [2007 г., Драма, 4xDVD9] R5 "Первая Видеокомпания"

Скачать
Магнет
ПомощьКак скачать раздачу
Поделиться
Теги / Меткидрама
Постер
Описаниеhttp://i32.fastpic.ru/big/2012/0107/bc/c0e5aa309ac1d1a21f83238ff25ca1bc.pngГод выпуска: 2007
Страна: Россия
Жанр: Драма
Продолжительность: ~ 1230 минут
Русские субтитры: есть

Режиссер: Сергей Гинзбург

В ролях: Вера Алентова, Анастасия Макеева, Лев Прыгунов, Татьяна Арнтгольц, Раиса Рязанова, Антон Хабаров, Полина Лунегова, Михаил Жигалов, Кирилл Жандаров, Светлана Иванова

Описание: Москва семидесятых. Вера, приехавшая работать «по лимиту» встречает в столице любовь своей жизни. Но что делать, если против чувства молодых оказываются номенклатурная семья избранника и ее окружение. Беременность Веры только усугубляет неразрешимый клубок обстоятельств и противоречий, сложившийся вокруг молодой и неискушенной провинциалки.

Сможет ли она устоять совершенно одна с ребенком в большом и враждебном городе и все же доказать свою невинность и отстоять право на любовь? Что будет с Ритой — ребенком Веры и Вадима, который долгие годы не верил в то, что это его дочь? Как сложится судьба девочки после того, когда она останется совершенно одна?.. http://i32.fastpic.ru/big/2012/0107/1e/57a7f62a29d14a93160553c1d5cdf41e.png[/img][img]http://i32.fastpic.ru/big/2012/0107/af/dafb59dd3b4593bbb266
bedecdfaddaf.png[/img][img]http://i32.fastpic.ru/big/2012/0107/1e/57a7f62a29d14a93160553c1d5cdf41e.png[/img][img]http://i32.fastpic.ru/big/2012/0107/a
f/dafb59dd3b4593bbb266bedecdfaddaf.png
Доп. информация:
Статичное меню; Рекламный ролик.
Киностудия: Альянс Профи; Телекомпания НТВ. Дистрибьютор: Первая Видеокомпания.
Ссылка по фильму:
[КиноПоиск.ru]

Коврик + блин (300 dpi) – прилагаются в папке! Региональная защита снята!

Качество: DVD9 Сэмпл
Формат: DVD Video
Видео кодек: MPEG2
Аудио кодек: AC3
Видео: PAL 4:3 (720x576) VBR
Аудио: Русский DD 2.0 (192Kbps)
Субтитры: Русские

DVDInfo


disc 1
Title: disc 1
Size: 7.69 Gb ( 8 066 466,00 KBytes ) - DVD-9
Enabled regions: 1, 2, 3, 4, 5, 6, 7, 8

VTS_01 :
Play Length: 00:00:31
Video: PAL 4:3 (720x576) VBR
Audio:
Not specified (Dolby AC3, 2 ch)

VTS_02 :
Play Length: 05:08:42
Video: PAL 4:3 (720x576) VBR
Audio:
Russian, AC3, 2/0 (L,R) ch, 192 kbps, Delay 0 mSec

Subtitles:
Russian

VTS_03 :
Play Length: 00:01:32
Video: PAL 4:3 (720x576) VBR
Audio:
Russian (Dolby AC3, 2 ch)
Subtitles:
Russian

* Menus Information *

VIDEO_TS Menu
Video:
PAL 4:3 (720x576) VBR
English Language Unit :
Title Menu

VTS_01 Menu
Video:
PAL 4:3 (720x576) VBR
English Language Unit :
Root Menu

VTS_02 Menu
Video:
PAL 4:3 (720x576) VBR
Audio:
Not specified (Dolby AC3, 2 ch)
English Language Unit :
Root Menu

VTS_03 Menu
Video:
PAL 4:3 (720x576) VBR
English Language Unit :
Root Menu


disc 2
Title: disc 2
Size: 7.70 Gb ( 8 072 836,00 KBytes ) - DVD-9
Enabled regions: 1, 2, 3, 4, 5, 6, 7, 8

VTS_01 :
Play Length: 00:00:31
Video: PAL 4:3 (720x576) VBR
Audio:
Not specified (Dolby AC3, 2 ch)

VTS_02 :
Play Length: 05:11:25
Video: PAL 4:3 (720x576) VBR
Audio:
Russian, AC3, 2/0 (L,R) ch, 192 kbps, Delay 0 mSec

Subtitles:
Russian

VTS_03 :
Play Length: 00:01:32
Video: PAL 4:3 (720x576) VBR
Audio:
Russian (Dolby AC3, 2 ch)
Subtitles:
Russian

* Menus Information *

VIDEO_TS Menu
Video:
PAL 4:3 (720x576) VBR
English Language Unit :
Title Menu

VTS_01 Menu
Video:
PAL 4:3 (720x576) VBR
English Language Unit :
Root Menu

VTS_02 Menu
Video:
PAL 4:3 (720x576) VBR
Audio:
Not specified (Dolby AC3, 2 ch)
English Language Unit :
Root Menu

VTS_03 Menu
Video:
PAL 4:3 (720x576) VBR
English Language Unit :
Root Menu


disc 3
Title: disc 3
Size: 7.70 Gb ( 8 071 106,00 KBytes ) - DVD-9
Enabled regions: 1, 2, 3, 4, 5, 6, 7, 8

VTS_01 :
Play Length: 00:00:31
Video: PAL 4:3 (720x576) VBR
Audio:
Not specified (Dolby AC3, 2 ch)

VTS_02 :
Play Length: 00:01:32
Video: PAL 4:3 (720x576) VBR
Audio:
Russian (Dolby AC3, 2 ch)

VTS_03 :
Play Length: 00:51:50
Video: PAL 4:3 (720x576) VBR
Audio:
Russian, AC3, 2/0 (L,R) ch, 192 kbps, Delay 0 mSec

Subtitles:
Russian

VTS_04 :
Play Length: 00:51:37
Video: PAL 4:3 (720x576) VBR
Audio:
Russian, AC3, 2/0 (L,R) ch, 192 kbps, Delay 0 mSec

Subtitles:
Russian

VTS_05 :
Play Length: 00:51:02
Video: PAL 4:3 (720x576) VBR
Audio:
Russian, AC3, 2/0 (L,R) ch, 192 kbps, Delay 0 mSec

Subtitles:
Russian

VTS_06 :
Play Length: 00:52:02
Video: PAL 4:3 (720x576) VBR
Audio:
Russian, AC3, 2/0 (L,R) ch, 192 kbps, Delay 0 mSec

Subtitles:
Russian

VTS_07 :
Play Length: 00:54:07
Video: PAL 4:3 (720x576) VBR
Audio:
Russian, AC3, 2/0 (L,R) ch, 192 kbps, Delay 0 mSec

Subtitles:
Russian

VTS_08 :
Play Length: 00:50:38
Video: PAL 4:3 (720x576) VBR
Audio:
Russian, AC3, 2/0 (L,R) ch, 192 kbps, Delay 0 mSec

Subtitles:
Russian

* Menus Information *

VIDEO_TS Menu
Video:
PAL 4:3 (720x576) VBR
English Language Unit :
Title Menu

VTS_01 Menu
Video:
PAL 4:3 (720x576) VBR
English Language Unit :
Root Menu

VTS_02 Menu
Video:
PAL 4:3 (720x576) VBR
Audio:
Not specified (Dolby AC3, 2 ch)
English Language Unit :
Root Menu

VTS_03 Menu
Video:
PAL 4:3 (720x576) VBR
English Language Unit :
Root Menu

VTS_04 Menu
Video:
PAL 4:3 (720x576) VBR
English Language Unit :
Root Menu

VTS_05 Menu
Video:
PAL 4:3 (720x576) VBR
English Language Unit :
Root Menu

VTS_06 Menu
Video:
PAL 4:3 (720x576) VBR
English Language Unit :
Root Menu

VTS_07 Menu
Video:
PAL 4:3 (720x576) VBR
English Language Unit :
Root Menu

VTS_08 Menu
Video:
PAL 4:3 (720x576) VBR
English Language Unit :
Root Menu


disc 4
Title: disc 4
Size: 7.74 Gb ( 8 112 646,00 KBytes ) - DVD-9
Enabled regions: 1, 2, 3, 4, 5, 6, 7, 8

VTS_01 :
Play Length: 00:00:31
Video: PAL 4:3 (720x576) VBR
Audio:
Not specified (Dolby AC3, 2 ch)

VTS_02 :
Play Length: 00:01:32
Video: PAL 4:3 (720x576) VBR
Audio:
Russian (Dolby AC3, 2 ch)

VTS_03 :
Play Length: 00:53:09
Video: PAL 4:3 (720x576) VBR
Audio:
Russian, AC3, 2/0 (L,R) ch, 192 kbps, Delay 0 mSec

Subtitles:
Russian

VTS_04 :
Play Length: 00:51:06
Video: PAL 4:3 (720x576) VBR
Audio:
Russian, AC3, 2/0 (L,R) ch, 192 kbps, Delay 0 mSec

Subtitles:
Russian

VTS_05 :
Play Length: 00:51:03
Video: PAL 4:3 (720x576) VBR
Audio:
Russian, AC3, 2/0 (L,R) ch, 192 kbps, Delay 0 mSec

Subtitles:
Russian

VTS_06 :
Play Length: 00:49:30
Video: PAL 4:3 (720x576) VBR
Audio:
Russian, AC3, 2/0 (L,R) ch, 192 kbps, Delay 0 mSec

Subtitles:
Russian

VTS_07 :
Play Length: 00:49:45
Video: PAL 4:3 (720x576) VBR
Audio:
Russian, AC3, 2/0 (L,R) ch, 192 kbps, Delay 0 mSec

Subtitles:
Russian

VTS_08 :
Play Length: 00:49:25
Video: PAL 4:3 (720x576) VBR
Audio:
Russian, AC3, 2/0 (L,R) ch, 192 kbps, Delay 0 mSec

Subtitles:
Russian

* Menus Information *

VIDEO_TS Menu
Video:
PAL 4:3 (720x576) VBR
English Language Unit :
Title Menu

VTS_01 Menu
Video:
PAL 4:3 (720x576) VBR
English Language Unit :
Root Menu

VTS_02 Menu
Video:
PAL 4:3 (720x576) VBR
Audio:
Not specified (Dolby AC3, 2 ch)
English Language Unit :
Root Menu

VTS_03 Menu
Video:
PAL 4:3 (720x576) VBR
English Language Unit :
Root Menu

VTS_04 Menu
Video:
PAL 4:3 (720x576) VBR
English Language Unit :
Root Menu

VTS_05 Menu
Video:
PAL 4:3 (720x576) VBR
English Language Unit :
Root Menu

VTS_06 Menu
Video:
PAL 4:3 (720x576) VBR
English Language Unit :
Root Menu

VTS_07 Menu
Video:
PAL 4:3 (720x576) VBR
English Language Unit :
Root Menu

VTS_08 Menu
Video:
PAL 4:3 (720x576) VBR
English Language Unit :
Root Menu




MediaInfo
Общее
Полное имя : D:\I vse-taki ya liubliu_4xDVD9\disc 1\VIDEO_TS\VIDEO_TS.BUP
Формат : DVD Video
Профиль формата : Menu
Размер файла : 20,0 Кбайт
Режим общего битрейта : Переменный

Видео
Идентификатор : 224 (0xE0)
Формат : MPEG Video
Версия формата : Version 2
Вид битрейта : Переменный
Ширина : 720 пикселей
Высота : 576 пикселей
Соотношение сторон : 4:3
Частота кадров : 25,000 кадров/сек
Стандарт вещания : PAL
Метод сжатия : С потерями

Текст
Формат : RLE
Формат/Информация : Run-length encoding
Битовая глубина : 2 бит

Общее
Полное имя : D:\I vse-taki ya liubliu_4xDVD9\disc 1\VIDEO_TS\VIDEO_TS.IFO
Формат : DVD Video
Профиль формата : Menu
Размер файла : 20,0 Кбайт
Режим общего битрейта : Переменный

Видео
Идентификатор : 224 (0xE0)
Формат : MPEG Video
Версия формата : Version 2
Вид битрейта : Переменный
Ширина : 720 пикселей
Высота : 576 пикселей
Соотношение сторон : 4:3
Частота кадров : 25,000 кадров/сек
Стандарт вещания : PAL
Метод сжатия : С потерями

Текст
Формат : RLE
Формат/Информация : Run-length encoding
Битовая глубина : 2 бит

Общее
Полное имя : D:\I vse-taki ya liubliu_4xDVD9\disc 1\VIDEO_TS\VIDEO_TS.VOB
Формат : MPEG-PS
Размер файла : 10,0 Кбайт
Продолжительность : 40 мс.
Общий поток : 2048 Кбит/сек

Видео
Идентификатор : 224 (0xE0)
Формат : MPEG Video
Версия формата : Version 2
Профиль формата : Main@Main
Параметр BVOP формата : Нет
Параметр матрицы формата : Выборочная
Продолжительность : 40 мс.
Максимальный битрейт : 9000 Кбит/сек
Ширина : 720 пикселей
Высота : 576 пикселей
Соотношение сторон : 4:3
Частота кадров : 25,000 кадров/сек
Стандарт вещания : PAL
Цветовое пространство : YUV
Субдискретизация насыщенности : 4:2:0
Битовая глубина : 8 бит
Тип развёртки : Прогрессивная
Порядок развёртки : Верхнее поле первое
Метод сжатия : С потерями
Основные цвета : SMPTE 170M
Характеристики трансфера : SMPTE 170M
Коэффициенты матрицы : SMPTE 170M

Меню

Общее
Полное имя : D:\I vse-taki ya liubliu_4xDVD9\disc 1\VIDEO_TS\VTS_01_0.BUP
Формат : DVD Video
Профиль формата : Program
Размер файла : 18,0 Кбайт
Продолжительность : 31 с.
Режим общего битрейта : Переменный
Общий поток : 4756 бит/сек

Видео
Идентификатор : 224 (0xE0)
Формат : MPEG Video
Версия формата : Version 2
Продолжительность : 31 с.
Вид битрейта : Переменный
Ширина : 720 пикселей
Высота : 576 пикселей
Соотношение сторон : 4:3
Частота кадров : 25,000 кадров/сек
Стандарт вещания : PAL
Метод сжатия : С потерями

Аудио
Идентификатор : 128 (0x80)
Формат : AC-3
Формат/Информация : Audio Coding 3
Продолжительность : 31 с.
Каналы : 2 канала
Частота : 48,0 КГц
Метод сжатия : С потерями

Меню
Продолжительность : 31 с.
00:00:00.000 : Chapter 1
00:00:30.600 : Chapter 2
List (Audio) : 0

Общее
Полное имя : D:\I vse-taki ya liubliu_4xDVD9\disc 1\VIDEO_TS\VTS_01_0.IFO
Формат : DVD Video
Профиль формата : Program
Размер файла : 18,0 Кбайт
Продолжительность : 31 с.
Режим общего битрейта : Переменный
Общий поток : 4756 бит/сек

Видео
Идентификатор : 224 (0xE0)
Формат : MPEG Video
Версия формата : Version 2
Продолжительность : 31 с.
Вид битрейта : Переменный
Ширина : 720 пикселей
Высота : 576 пикселей
Соотношение сторон : 4:3
Частота кадров : 25,000 кадров/сек
Стандарт вещания : PAL
Метод сжатия : С потерями

Аудио
Идентификатор : 128 (0x80)
Формат : AC-3
Формат/Информация : Audio Coding 3
Продолжительность : 31 с.
Каналы : 2 канала
Частота : 48,0 КГц
Метод сжатия : С потерями

Меню
Продолжительность : 31 с.
00:00:00.000 : Chapter 1
00:00:30.600 : Chapter 2
List (Audio) : 0

Общее
Полное имя : D:\I vse-taki ya liubliu_4xDVD9\disc 1\VIDEO_TS\VTS_01_0.VOB
Формат : MPEG-PS
Размер файла : 140 Кбайт
Продолжительность : 26 ч.
Общий поток : 12 бит/сек

Видео
Идентификатор : 224 (0xE0)
Формат : MPEG Video
Версия формата : Version 2
Профиль формата : Main@Main
Параметр BVOP формата : Нет
Параметр матрицы формата : Выборочная
Параметр GOP формата : N=1
Продолжительность : 114 мс.
Максимальный битрейт : 9000 Кбит/сек
Ширина : 720 пикселей
Высота : 576 пикселей
Соотношение сторон : 4:3
Частота кадров : 25,000 кадров/сек
Стандарт вещания : PAL
Цветовое пространство : YUV
Субдискретизация насыщенности : 4:2:0
Битовая глубина : 8 бит
Тип развёртки : Прогрессивная
Порядок развёртки : Верхнее поле первое
Метод сжатия : С потерями
Основные цвета : SMPTE 170M
Характеристики трансфера : SMPTE 170M
Коэффициенты матрицы : SMPTE 170M

Текст
Идентификатор : 189 (0xBD)-32 (0x20)
Формат : RLE
Формат/Информация : Run-length encoding
Режим смешивания : DVD-Video
Продолжительность : 26 ч.
Задержка видео : 74 мс.

Меню

Общее
Полное имя : D:\I vse-taki ya liubliu_4xDVD9\disc 1\VIDEO_TS\VTS_01_1.VOB
Формат : MPEG-PS
Размер файла : 11,3 Мбайт
Продолжительность : 25 с.
Общий поток : 3783 Кбит/сек

Видео
Идентификатор : 224 (0xE0)
Формат : MPEG Video
Версия формата : Version 2
Профиль формата : Main@Main
Параметр BVOP формата : Да
Параметр матрицы формата : По умолчанию
Параметр GOP формата : M=3, N=12
Продолжительность : 25 с.
Битрейт : 3516 Кбит/сек
Максимальный битрейт : 8000 Кбит/сек
Ширина : 720 пикселей
Высота : 576 пикселей
Соотношение сторон : 4:3
Частота кадров : 25,000 кадров/сек
Стандарт вещания : PAL
Цветовое пространство : YUV
Субдискретизация насыщенности : 4:2:0
Битовая глубина : 8 бит
Тип развёртки : Чересстрочная
Порядок развёртки : Нижнее поле первое
Метод сжатия : С потерями
Бит/(Пиксели*Кадры) : 0.339
Размер потока : 10,5 Мбайт (93%)

Аудио
Идентификатор : 189 (0xBD)-128 (0x80)
Формат : AC-3
Формат/Информация : Audio Coding 3
Расширение режима : CM (complete main)
Режим смешивания : DVD-Video
Продолжительность : 24 с.
Вид битрейта : Постоянный
Битрейт : 192 Кбит/сек
Каналы : 2 канала
Расположение каналов : Front: L R
Частота : 48,0 КГц
Битовая глубина : 16 бит
Метод сжатия : С потерями
Задержка видео : -70 мс.
Размер потока : 586 Кбайт (5%)

Меню

Общее
Полное имя : D:\I vse-taki ya liubliu_4xDVD9\disc 1\VIDEO_TS\VTS_02_0.BUP
Формат : DVD Video
Профиль формата : Program
Размер файла : 102 Кбайт
Продолжительность : 5 ч. 8 м.
Режим общего битрейта : Переменный
Общий поток : 45 бит/сек

Видео
Идентификатор : 224 (0xE0)
Формат : MPEG Video
Версия формата : Version 2
Продолжительность : 5 ч. 8 м.
Вид битрейта : Переменный
Ширина : 720 пикселей
Высота : 576 пикселей
Соотношение сторон : 4:3
Частота кадров : 25,000 кадров/сек
Стандарт вещания : PAL
Метод сжатия : С потерями

Аудио
Идентификатор : 128 (0x80)
Формат : AC-3
Формат/Информация : Audio Coding 3
Продолжительность : 5 ч. 8 м.
Каналы : 2 канала
Частота : 48,0 КГц
Метод сжатия : С потерями
Язык : Russian

Текст
Идентификатор : 32 (0x20)
Формат : RLE
Формат/Информация : Run-length encoding
Битовая глубина : 2 бит
Язык : Russian

Меню
Продолжительность : 5 ч. 8 м.
00:00:00.000 : Chapter 1
00:06:26.400 : Chapter 2
00:17:49.480 : Chapter 3
00:24:37.720 : Chapter 4
00:38:04.680 : Chapter 5
00:45:36.640 : Chapter 6
00:50:03.720 : Chapter 7
00:59:03.240 : Chapter 8
01:10:04.880 : Chapter 9
01:19:35.760 : Chapter 10
01:25:54.440 : Chapter 11
01:37:08.840 : Chapter 12
01:41:16.880 : Chapter 13
01:49:28.280 : Chapter 14
01:55:47.560 : Chapter 15
02:04:56.880 : Chapter 16
02:15:20.800 : Chapter 17
02:22:22.040 : Chapter 18
02:32:39.520 : Chapter 19
02:41:18.040 : Chapter 20
02:52:41.400 : Chapter 21
03:00:53.680 : Chapter 22
03:06:03.880 : Chapter 23
03:15:02.040 : Chapter 24
03:25:07.120 : Chapter 25
03:34:24.680 : Chapter 26
03:45:49.440 : Chapter 27
03:56:42.160 : Chapter 28
04:04:14.120 : Chapter 29
04:13:12.800 : Chapter 30
04:16:51.160 : Chapter 31
04:25:40.000 : Chapter 32
04:39:17.120 : Chapter 33
04:49:52.000 : Chapter 34
04:57:36.720 : Chapter 35
05:01:21.920 : Chapter 36
05:08:40.760 : Chapter 37
05:08:42.200 : Chapter 38
List (Audio) : 0
List (Subtitles 4/3) : 0
List (Subtitles Wide) : 0
List (Subtitles Letterbox) : 0
List (Subtitles Pan&Scan) : 0

Общее
Полное имя : D:\I vse-taki ya liubliu_4xDVD9\disc 1\VIDEO_TS\VTS_02_0.IFO
Формат : DVD Video
Профиль формата : Program
Размер файла : 102 Кбайт
Продолжительность : 5 ч. 8 м.
Режим общего битрейта : Переменный
Общий поток : 45 бит/сек

Видео
Идентификатор : 224 (0xE0)
Формат : MPEG Video
Версия формата : Version 2
Продолжительность : 5 ч. 8 м.
Вид битрейта : Переменный
Ширина : 720 пикселей
Высота : 576 пикселей
Соотношение сторон : 4:3
Частота кадров : 25,000 кадров/сек
Стандарт вещания : PAL
Метод сжатия : С потерями

Аудио
Идентификатор : 128 (0x80)
Формат : AC-3
Формат/Информация : Audio Coding 3
Продолжительность : 5 ч. 8 м.
Каналы : 2 канала
Частота : 48,0 КГц
Метод сжатия : С потерями
Язык : Russian

Текст
Идентификатор : 32 (0x20)
Формат : RLE
Формат/Информация : Run-length encoding
Битовая глубина : 2 бит
Язык : Russian

Меню
Продолжительность : 5 ч. 8 м.
00:00:00.000 : Chapter 1
00:06:26.400 : Chapter 2
00:17:49.480 : Chapter 3
00:24:37.720 : Chapter 4
00:38:04.680 : Chapter 5
00:45:36.640 : Chapter 6
00:50:03.720 : Chapter 7
00:59:03.240 : Chapter 8
01:10:04.880 : Chapter 9
01:19:35.760 : Chapter 10
01:25:54.440 : Chapter 11
01:37:08.840 : Chapter 12
01:41:16.880 : Chapter 13
01:49:28.280 : Chapter 14
01:55:47.560 : Chapter 15
02:04:56.880 : Chapter 16
02:15:20.800 : Chapter 17
02:22:22.040 : Chapter 18
02:32:39.520 : Chapter 19
02:41:18.040 : Chapter 20
02:52:41.400 : Chapter 21
03:00:53.680 : Chapter 22
03:06:03.880 : Chapter 23
03:15:02.040 : Chapter 24
03:25:07.120 : Chapter 25
03:34:24.680 : Chapter 26
03:45:49.440 : Chapter 27
03:56:42.160 : Chapter 28
04:04:14.120 : Chapter 29
04:13:12.800 : Chapter 30
04:16:51.160 : Chapter 31
04:25:40.000 : Chapter 32
04:39:17.120 : Chapter 33
04:49:52.000 : Chapter 34
04:57:36.720 : Chapter 35
05:01:21.920 : Chapter 36
05:08:40.760 : Chapter 37
05:08:42.200 : Chapter 38
List (Audio) : 0
List (Subtitles 4/3) : 0
List (Subtitles Wide) : 0
List (Subtitles Letterbox) : 0
List (Subtitles Pan&Scan) : 0

Общее
Полное имя : D:\I vse-taki ya liubliu_4xDVD9\disc 1\VIDEO_TS\VTS_02_0.VOB
Формат : MPEG-PS
Размер файла : 2,78 Мбайт
Продолжительность : 1 м. 44 с.
Общий поток : 222 Кбит/сек

Видео
Идентификатор : 224 (0xE0)
Формат : MPEG Video
Версия формата : Version 2
Профиль формата : Main@Main
Параметр BVOP формата : Нет
Параметр матрицы формата : Выборочная
Параметр GOP формата : N=1
Продолжительность : 136 мс.
Битрейт : 26,0 Кбит/сек
Максимальный битрейт : 9000 Кбит/сек
Ширина : 720 пикселей
Высота : 576 пикселей
Соотношение сторон : 4:3
Частота кадров : 25,000 кадров/сек
Стандарт вещания : PAL
Цветовое пространство : YUV
Субдискретизация насыщенности : 4:2:0
Битовая глубина : 8 бит
Тип развёртки : Прогрессивная
Порядок развёртки : Верхнее поле первое
Метод сжатия : С потерями
Бит/(Пиксели*Кадры) : 0.003
Размер потока : 442 байт (0%)
Основные цвета : SMPTE 170M
Характеристики трансфера : SMPTE 170M
Коэффициенты матрицы : SMPTE 170M

Аудио
Идентификатор : 189 (0xBD)-128 (0x80)
Формат : AC-3
Формат/Информация : Audio Coding 3
Расширение режима : CM (complete main)
Режим смешивания : DVD-Video
Продолжительность : 1 м. 44 с.
Вид битрейта : Постоянный
Битрейт : 192 Кбит/сек
Каналы : 2 канала
Расположение каналов : Front: L R
Частота : 48,0 КГц
Битовая глубина : 16 бит
Метод сжатия : С потерями
Задержка видео : 96 мс.
Размер потока : 2,40 Мбайт (86%)

Текст
Идентификатор : 189 (0xBD)-32 (0x20)
Формат : RLE
Формат/Информация : Run-length encoding
Режим смешивания : DVD-Video
Задержка видео : 96 мс.

Меню

Общее
Полное имя : D:\I vse-taki ya liubliu_4xDVD9\disc 1\VIDEO_TS\VTS_02_1.VOB
Формат : MPEG-PS
Размер файла : 1024 Мбайт
Продолжительность : 40 м.
Режим общего битрейта : Переменный
Общий поток : 3549 Кбит/сек

Видео
Идентификатор : 224 (0xE0)
Формат : MPEG Video
Версия формата : Version 2
Профиль формата : Main@Main
Параметр BVOP формата : Да
Параметр матрицы формата : По умолчанию
Продолжительность : 40 м.
Вид битрейта : Переменный
Битрейт : 3287 Кбит/сек
Максимальный битрейт : 8000 Кбит/сек
Ширина : 720 пикселей
Высота : 576 пикселей
Соотношение сторон : 4:3
Частота кадров : 25,000 кадров/сек
Стандарт вещания : PAL
Цветовое пространство : YUV
Субдискретизация насыщенности : 4:2:0
Битовая глубина : 8 бит
Тип развёртки : Чересстрочная
Порядок развёртки : Верхнее поле первое
Метод сжатия : С потерями
Бит/(Пиксели*Кадры) : 0.317
Размер потока : 948 Мбайт (93%)

Аудио
Идентификатор : 189 (0xBD)-128 (0x80)
Формат : AC-3
Формат/Информация : Audio Coding 3
Расширение режима : CM (complete main)
Режим смешивания : DVD-Video
Продолжительность : 40 м.
Вид битрейта : Постоянный
Битрейт : 192 Кбит/сек
Каналы : 2 канала
Расположение каналов : Front: L R
Частота : 48,0 КГц
Битовая глубина : 16 бит
Метод сжатия : С потерями
Задержка видео : -80 мс.
Размер потока : 55,4 Мбайт (5%)

Текст
Идентификатор : 189 (0xBD)-32 (0x20)
Формат : RLE
Формат/Информация : Run-length encoding
Режим смешивания : DVD-Video

Меню

Общее
Полное имя : D:\I vse-taki ya liubliu_4xDVD9\disc 1\VIDEO_TS\VTS_02_2.VOB
Формат : MPEG-PS
Размер файла : 1024 Мбайт
Продолжительность : 40 м.
Режим общего битрейта : Переменный
Общий поток : 3545 Кбит/сек

Видео
Идентификатор : 224 (0xE0)
Формат : MPEG Video
Версия формата : Version 2
Профиль формата : Main@Main
Параметр BVOP формата : Да
Параметр матрицы формата : По умолчанию
Параметр GOP формата : M=3, N=12
Продолжительность : 40 м.
Вид битрейта : Переменный
Битрейт : 3283 Кбит/сек
Максимальный битрейт : 8000 Кбит/сек
Ширина : 720 пикселей
Высота : 576 пикселей
Соотношение сторон : 4:3
Частота кадров : 25,000 кадров/сек
Стандарт вещания : PAL
Цветовое пространство : YUV
Субдискретизация насыщенности : 4:2:0
Битовая глубина : 8 бит
Тип развёртки : Чересстрочная
Порядок развёртки : Верхнее поле первое
Метод сжатия : С потерями
Бит/(Пиксели*Кадры) : 0.317
Размер потока : 948 Мбайт (93%)

Аудио
Идентификатор : 189 (0xBD)-128 (0x80)
Формат : AC-3
Формат/Информация : Audio Coding 3
Расширение режима : CM (complete main)
Режим смешивания : DVD-Video
Продолжительность : 40 м.
Вид битрейта : Постоянный
Битрейт : 192 Кбит/сек
Каналы : 2 канала
Расположение каналов : Front: L R
Частота : 48,0 КГц
Битовая глубина : 16 бит
Метод сжатия : С потерями
Задержка видео : -392 мс.
Размер потока : 55,5 Мбайт (5%)

Текст
Идентификатор : 189 (0xBD)-32 (0x20)
Формат : RLE
Формат/Информация : Run-length encoding
Режим смешивания : DVD-Video
Продолжительность : 40 м.
Задержка видео : 480 мс.

Меню

Общее
Полное имя : D:\I vse-taki ya liubliu_4xDVD9\disc 1\VIDEO_TS\VTS_02_3.VOB
Формат : MPEG-PS
Размер файла : 1024 Мбайт
Продолжительность : 9 с. 720 мс.
Режим общего битрейта : Переменный
Общий поток : 884 Мбит/сек

Видео
Идентификатор : 224 (0xE0)
Формат : MPEG Video
Версия формата : Version 2
Профиль формата : Main@Main
Параметр BVOP формата : Да
Параметр матрицы формата : По умолчанию
Параметр GOP формата : M=3, N=12
Продолжительность : 9 с. 720 мс.
Вид битрейта : Переменный
Битрейт : 866 Мбит/сек
Максимальный битрейт : 8000 Кбит/сек
Ширина : 720 пикселей
Высота : 576 пикселей
Соотношение сторон : 4:3
Частота кадров : 25,000 кадров/сек
Стандарт вещания : PAL
Цветовое пространство : YUV
Субдискретизация насыщенности : 4:2:0
Битовая глубина : 8 бит
Тип развёртки : Чересстрочная
Порядок развёртки : Верхнее поле первое
Метод сжатия : С потерями
Бит/(Пиксели*Кадры) : 83.522
Размер потока : 1003 Мбайт (98%)

Аудио
Идентификатор : 189 (0xBD)-128 (0x80)
Формат : AC-3
Формат/Информация : Audio Coding 3
Расширение режима : CM (complete main)
Режим смешивания : DVD-Video
Продолжительность : 9 с. 720 мс.
Вид битрейта : Постоянный
Битрейт : 192 Кбит/сек
Каналы : 2 канала
Расположение каналов : Front: L R
Частота : 48,0 КГц
Битовая глубина : 16 бит
Метод сжатия : С потерями
Задержка видео : -160 мс.
Размер потока : 228 Кбайт (0%)

Текст
Идентификатор : 189 (0xBD)-32 (0x20)
Формат : RLE
Формат/Информация : Run-length encoding
Режим смешивания : DVD-Video
Задержка видео : 800 мс.

Меню

Общее
Полное имя : D:\I vse-taki ya liubliu_4xDVD9\disc 1\VIDEO_TS\VTS_02_4.VOB
Формат : MPEG-PS
Размер файла : 1024 Мбайт
Продолжительность : 11 с.
Режим общего битрейта : Переменный
Общий поток : 770 Мбит/сек

Видео
Идентификатор : 224 (0xE0)
Формат : MPEG Video
Версия формата : Version 2
Профиль формата : Main@Main
Параметр BVOP формата : Да
Параметр матрицы формата : По умолчанию
Параметр GOP формата : M=3, N=12
Продолжительность : 11 с.
Вид битрейта : Переменный
Битрейт : 754 Мбит/сек
Максимальный битрейт : 8000 Кбит/сек
Ширина : 720 пикселей
Высота : 576 пикселей
Соотношение сторон : 4:3
Частота кадров : 25,000 кадров/сек
Стандарт вещания : PAL
Цветовое пространство : YUV
Субдискретизация насыщенности : 4:2:0
Битовая глубина : 8 бит
Тип развёртки : Чересстрочная
Порядок развёртки : Верхнее поле первое
Метод сжатия : С потерями
Бит/(Пиксели*Кадры) : 72.743
Размер потока : 1003 Мбайт (98%)

Аудио
Идентификатор : 189 (0xBD)-128 (0x80)
Формат : AC-3
Формат/Информация : Audio Coding 3
Расширение режима : CM (complete main)
Режим смешивания : DVD-Video
Продолжительность : 11 с.
Вид битрейта : Постоянный
Битрейт : 192 Кбит/сек
Каналы : 2 канала
Расположение каналов : Front: L R
Частота : 48,0 КГц
Битовая глубина : 16 бит
Метод сжатия : С потерями
Задержка видео : -480 мс.
Размер потока : 262 Кбайт (0%)

Текст
Идентификатор : 189 (0xBD)-32 (0x20)
Формат : RLE
Формат/Информация : Run-length encoding
Режим смешивания : DVD-Video
Задержка видео : -240 мс.

Меню

Общее
Полное имя : D:\I vse-taki ya liubliu_4xDVD9\disc 1\VIDEO_TS\VTS_02_5.VOB
Формат : MPEG-PS
Размер файла : 1024 Мбайт
Продолжительность : 40 м.
Режим общего битрейта : Переменный
Общий поток : 3551 Кбит/сек

Видео
Идентификатор : 224 (0xE0)
Формат : MPEG Video
Версия формата : Version 2
Профиль формата : Main@Main
Параметр BVOP формата : Да
Параметр матрицы формата : По умолчанию
Параметр GOP формата : M=3, N=12
Продолжительность : 40 м.
Вид битрейта : Переменный
Битрейт : 3288 Кбит/сек
Максимальный битрейт : 8000 Кбит/сек
Ширина : 720 пикселей
Высота : 576 пикселей
Соотношение сторон : 4:3
Частота кадров : 25,000 кадров/сек
Стандарт вещания : PAL
Цветовое пространство : YUV
Субдискретизация насыщенности : 4:2:0
Битовая глубина : 8 бит
Тип развёртки : Чересстрочная
Порядок развёртки : Верхнее поле первое
Метод сжатия : С потерями
Бит/(Пиксели*Кадры) : 0.317
Размер потока : 948 Мбайт (93%)

Аудио
Идентификатор : 189 (0xBD)-128 (0x80)
Формат : AC-3
Формат/Информация : Audio Coding 3
Расширение режима : CM (complete main)
Режим смешивания : DVD-Video
Продолжительность : 40 м.
Вид битрейта : Постоянный
Битрейт : 192 Кбит/сек
Каналы : 2 канала
Расположение каналов : Front: L R
Частота : 48,0 КГц
Битовая глубина : 16 бит
Метод сжатия : С потерями
Задержка видео : -504 мс.
Размер потока : 55,4 Мбайт (5%)

Текст
Идентификатор : 189 (0xBD)-32 (0x20)
Формат : RLE
Формат/Информация : Run-length encoding
Режим смешивания : DVD-Video
Продолжительность : 40 м.
Задержка видео : 480 мс.

Меню

Общее
Полное имя : D:\I vse-taki ya liubliu_4xDVD9\disc 1\VIDEO_TS\VTS_02_6.VOB
Формат : MPEG-PS
Размер файла : 1024 Мбайт
Продолжительность : 11 с.
Режим общего битрейта : Переменный
Общий поток : 725 Мбит/сек

Видео
Идентификатор : 224 (0xE0)
Формат : MPEG Video
Версия формата : Version 2
Профиль формата : Main@Main
Параметр BVOP формата : Да
Параметр матрицы формата : По умолчанию
Параметр GOP формата : M=3, N=12
Продолжительность : 11 с.
Вид битрейта : Переменный
Битрейт : 711 Мбит/сек
Максимальный битрейт : 8000 Кбит/сек
Ширина : 720 пикселей
Высота : 576 пикселей
Соотношение сторон : 4:3
Частота кадров : 25,000 кадров/сек
Стандарт вещания : PAL
Цветовое пространство : YUV
Субдискретизация насыщенности : 4:2:0
Битовая глубина : 8 бит
Тип развёртки : Чересстрочная
Порядок развёртки : Верхнее поле первое
Метод сжатия : С потерями
Бит/(Пиксели*Кадры) : 68.564
Размер потока : 1003 Мбайт (98%)

Аудио
Идентификатор : 189 (0xBD)-128 (0x80)
Формат : AC-3
Формат/Информация : Audio Coding 3
Расширение режима : CM (complete main)
Режим смешивания : DVD-Video
Продолжительность : 11 с.
Вид битрейта : Постоянный
Битрейт : 192 Кбит/сек
Каналы : 2 канала
Расположение каналов : Front: L R
Частота : 48,0 КГц
Битовая глубина : 16 бит
Метод сжатия : С потерями
Задержка видео : -504 мс.
Размер потока : 278 Кбайт (0%)

Текст
Идентификатор : 189 (0xBD)-32 (0x20)
Формат : RLE
Формат/Информация : Run-length encoding
Режим смешивания : DVD-Video
Задержка видео : 360 мс.

Меню

Общее
Полное имя : D:\I vse-taki ya liubliu_4xDVD9\disc 1\VIDEO_TS\VTS_02_7.VOB
Формат : MPEG-PS
Размер файла : 1024 Мбайт
Продолжительность : 10 с.
Режим общего битрейта : Переменный
Общий поток : 795 Мбит/сек

Видео
Идентификатор : 224 (0xE0)
Формат : MPEG Video
Версия формата : Version 2
Профиль формата : Main@Main
Параметр BVOP формата : Да
Параметр матрицы формата : По умолчанию
Параметр GOP формата : M=3, N=12
Продолжительность : 10 с.
Вид битрейта : Переменный
Битрейт : 779 Мбит/сек
Максимальный битрейт : 8000 Кбит/сек
Ширина : 720 пикселей
Высота : 576 пикселей
Соотношение сторон : 4:3
Частота кадров : 25,000 кадров/сек
Стандарт вещания : PAL
Цветовое пространство : YUV
Субдискретизация насыщенности : 4:2:0
Битовая глубина : 8 бит
Тип развёртки : Чересстрочная
Порядок развёртки : Верхнее поле первое
Метод сжатия : С потерями
Бит/(Пиксели*Кадры) : 75.168
Размер потока : 1003 Мбайт (98%)

Аудио
Идентификатор : 189 (0xBD)-128 (0x80)
Формат : AC-3
Формат/Информация : Audio Coding 3
Расширение режима : CM (complete main)
Режим смешивания : DVD-Video
Продолжительность : 10 с.
Вид битрейта : Постоянный
Битрейт : 192 Кбит/сек
Каналы : 2 канала
Расположение каналов : Front: L R
Частота : 48,0 КГц
Битовая глубина : 16 бит
Метод сжатия : С потерями
Задержка видео : -576 мс.
Размер потока : 253 Кбайт (0%)

Текст
Идентификатор : 189 (0xBD)-32 (0x20)
Формат : RLE
Формат/Информация : Run-length encoding
Режим смешивания : DVD-Video
Задержка видео : -520 мс.

Меню

Общее
Полное имя : D:\I vse-taki ya liubliu_4xDVD9\disc 1\VIDEO_TS\VTS_02_8.VOB
Формат : MPEG-PS
Размер файла : 661 Мбайт
Продолжительность : 26 м.
Режим общего битрейта : Переменный
Общий поток : 3543 Кбит/сек

Видео
Идентификатор : 224 (0xE0)
Формат : MPEG Video
Версия формата : Version 2
Профиль формата : Main@Main
Параметр BVOP формата : Да
Параметр матрицы формата : По умолчанию
Параметр GOP формата : M=3, N=12
Продолжительность : 26 м.
Вид битрейта : Переменный
Битрейт : 3280 Кбит/сек
Максимальный битрейт : 8000 Кбит/сек
Ширина : 720 пикселей
Высота : 576 пикселей
Соотношение сторон : 4:3
Частота кадров : 25,000 кадров/сек
Стандарт вещания : PAL
Цветовое пространство : YUV
Субдискретизация насыщенности : 4:2:0
Битовая глубина : 8 бит
Тип развёртки : Чересстрочная
Порядок развёртки : Верхнее поле первое
Метод сжатия : С потерями
Бит/(Пиксели*Кадры) : 0.316
Размер потока : 612 Мбайт (93%)

Аудио
Идентификатор : 189 (0xBD)-128 (0x80)
Формат : AC-3
Формат/Информация : Audio Coding 3
Расширение режима : CM (complete main)
Режим смешивания : DVD-Video
Продолжительность : 26 м.
Вид битрейта : Постоянный
Битрейт : 192 Кбит/сек
Каналы : 2 канала
Расположение каналов : Front: L R
Частота : 48,0 КГц
Битовая глубина : 16 бит
Метод сжатия : С потерями
Задержка видео : -168 мс.
Размер потока : 35,8 Мбайт (5%)

Текст
Идентификатор : 189 (0xBD)-32 (0x20)
Формат : RLE
Формат/Информация : Run-length encoding
Режим смешивания : DVD-Video
Задержка видео : 7 с. 720 мс.

Меню

Общее
Полное имя : D:\I vse-taki ya liubliu_4xDVD9\disc 1\VIDEO_TS\VTS_03_0.BUP
Формат : DVD Video
Профиль формата : Program
Размер файла : 18,0 Кбайт
Продолжительность : 1 м. 32 с.
Режим общего битрейта : Переменный
Общий поток : 1587 бит/сек

Видео
Идентификатор : 224 (0xE0)
Формат : MPEG Video
Версия формата : Version 2
Продолжительность : 1 м. 32 с.
Вид битрейта : Переменный
Ширина : 720 пикселей
Высота : 576 пикселей
Соотношение сторон : 4:3
Частота кадров : 25,000 кадров/сек
Стандарт вещания : PAL
Метод сжатия : С потерями

Аудио
Идентификатор : 128 (0x80)
Формат : AC-3
Формат/Информация : Audio Coding 3
Продолжительность : 1 м. 32 с.
Каналы : 2 канала
Частота : 48,0 КГц
Метод сжатия : С потерями
Язык : Russian

Текст
Идентификатор : 32 (0x20)
Формат : RLE
Формат/Информация : Run-length encoding
Битовая глубина : 2 бит
Язык : Russian

Меню
Продолжительность : 1 м. 32 с.
00:00:00.000 : Chapter 1
00:00:40.840 : Chapter 2
00:01:10.080 : Chapter 3
00:01:31.640 : Chapter 4
00:01:32.440 : Chapter 5
List (Audio) : 0
List (Subtitles 4/3) : 0
List (Subtitles Wide) : 0
List (Subtitles Letterbox) : 0
List (Subtitles Pan&Scan) : 0

Общее
Полное имя : D:\I vse-taki ya liubliu_4xDVD9\disc 1\VIDEO_TS\VTS_03_0.IFO
Формат : DVD Video
Профиль формата : Program
Размер файла : 18,0 Кбайт
Продолжительность : 1 м. 32 с.
Режим общего битрейта : Переменный
Общий поток : 1587 бит/сек

Видео
Идентификатор : 224 (0xE0)
Формат : MPEG Video
Версия формата : Version 2
Продолжительность : 1 м. 32 с.
Вид битрейта : Переменный
Ширина : 720 пикселей
Высота : 576 пикселей
Соотношение сторон : 4:3
Частота кадров : 25,000 кадров/сек
Стандарт вещания : PAL
Метод сжатия : С потерями

Аудио
Идентификатор : 128 (0x80)
Формат : AC-3
Формат/Информация : Audio Coding 3
Продолжительность : 1 м. 32 с.
Каналы : 2 канала
Частота : 48,0 КГц
Метод сжатия : С потерями
Язык : Russian

Текст
Идентификатор : 32 (0x20)
Формат : RLE
Формат/Информация : Run-length encoding
Битовая глубина : 2 бит
Язык : Russian

Меню
Продолжительность : 1 м. 32 с.
00:00:00.000 : Chapter 1
00:00:40.840 : Chapter 2
00:01:10.080 : Chapter 3
00:01:31.640 : Chapter 4
00:01:32.440 : Chapter 5
List (Audio) : 0
List (Subtitles 4/3) : 0
List (Subtitles Wide) : 0
List (Subtitles Letterbox) : 0
List (Subtitles Pan&Scan) : 0

Общее
Полное имя : D:\I vse-taki ya liubliu_4xDVD9\disc 1\VIDEO_TS\VTS_03_0.VOB
Формат : MPEG-PS
Размер файла : 10,0 Кбайт
Продолжительность : 40 мс.
Общий поток : 2048 Кбит/сек

Видео
Идентификатор : 224 (0xE0)
Формат : MPEG Video
Версия формата : Version 2
Профиль формата : Main@Main
Параметр BVOP формата : Нет
Параметр матрицы формата : Выборочная
Продолжительность : 40 мс.
Максимальный битрейт : 9000 Кбит/сек
Ширина : 720 пикселей
Высота : 576 пикселей
Соотношение сторон : 4:3
Частота кадров : 25,000 кадров/сек
Стандарт вещания : PAL
Цветовое пространство : YUV
Субдискретизация насыщенности : 4:2:0
Битовая глубина : 8 бит
Тип развёртки : Прогрессивная
Порядок развёртки : Верхнее поле первое
Метод сжатия : С потерями
Основные цвета : SMPTE 170M
Характеристики трансфера : SMPTE 170M
Коэффициенты матрицы : SMPTE 170M

Меню

Общее
Полное имя : D:\I vse-taki ya liubliu_4xDVD9\disc 1\VIDEO_TS\VTS_03_1.VOB
Формат : MPEG-PS
Размер файла : 34,1 Мбайт
Продолжительность : 1 м. 32 с.
Общий поток : 3094 Кбит/сек

Видео
Идентификатор : 224 (0xE0)
Формат : MPEG Video
Версия формата : Version 2
Профиль формата : Main@Main
Параметр BVOP формата : Да
Параметр матрицы формата : По умолчанию
Продолжительность : 1 м. 32 с.
Битрейт : 2841 Кбит/сек
Максимальный битрейт : 8000 Кбит/сек
Ширина : 720 пикселей
Высота : 576 пикселей
Соотношение сторон : 4:3
Частота кадров : 25,000 кадров/сек
Стандарт вещания : PAL
Цветовое пространство : YUV
Субдискретизация насыщенности : 4:2:0
Битовая глубина : 8 бит
Тип развёртки : Чересстрочная
Порядок развёртки : Верхнее поле первое
Метод сжатия : С потерями
Бит/(Пиксели*Кадры) : 0.274
Размер потока : 31,3 Мбайт (92%)

Аудио
Идентификатор : 189 (0xBD)-128 (0x80)
Формат : AC-3
Формат/Информация : Audio Coding 3
Расширение режима : CM (complete main)
Режим смешивания : DVD-Video
Продолжительность : 1 м. 32 с.
Вид битрейта : Постоянный
Битрейт : 192 Кбит/сек
Каналы : 2 канала
Расположение каналов : Front: L R
Частота : 48,0 КГц
Битовая глубина : 16 бит
Метод сжатия : С потерями
Задержка видео : -80 мс.
Размер потока : 2,11 Мбайт (6%)

Меню


Скриншоты
http://i27.fastpic.ru/thumb/2012/0107/ff/cb62203e0a7382afe94f7011a49806ff.jpeg http://i32.fastpic.ru/thumb/2012/0107/a1/00df10c5d4ba792b1cfd8a8a67e410a1.jpeg http://i32.fastpic.ru/thumb/2012/0107/5a/fc37db3df953196425dd32650a1f965a.jpeg http://i28.fastpic.ru/thumb/2012/0107/b6/bcde265c7a0e3af4ad3d3725b4e8a2b6.jpeg http://i32.fastpic.ru/thumb/2012/0107/97/6893c883bce24dab27b13c2dc9d5a197.jpeg
http://i29.fastpic.ru/thumb/2012/0107/5f/b73c48efe4791871744955d9458e405f.jpeg http://i27.fastpic.ru/thumb/2012/0107/e7/3bb7525818162bde9fd88db7549030e7.jpeg http://i28.fastpic.ru/thumb/2012/0107/6f/de07db3ae29b9f32786a55fb8c53416f.jpeg http://i29.fastpic.ru/thumb/2012/0107/48/d9cb87c93bf20ca84d47ac0a28a99048.jpeg http://i31.fastpic.ru/thumb/2012/0107/3c/a52562ae4dd6e2869486b409c333d33c.jpeg
http://i27.fastpic.ru/thumb/2012/0107/60/bd5176413a59af812d44b7205a0ded60.jpeg http://i31.fastpic.ru/thumb/2012/0107/0c/495b6e657d9c31c44f7b3db8cbe3310c.jpeg http://i28.fastpic.ru/thumb/2012/0107/ca/7bcf6413bd652cf07948f274acbff1ca.jpeg http://i29.fastpic.ru/thumb/2012/0107/64/0ac9955b74c5191c6fe174808a857b64.jpeg http://i32.fastpic.ru/thumb/2012/0107/38/6ff4159381b70970c703d4ec9fc3c038.jpeg
http://i31.fastpic.ru/thumb/2012/0107/95/0035cd1186392d6e6288f7d2898bb895.jpeg http://i29.fastpic.ru/thumb/2012/0107/01/8b3ff786765e80d48a6319afb13ed601.jpeg http://i32.fastpic.ru/thumb/2012/0107/80/1c1855e5586c400c5301bc204db04580.jpeg http://i28.fastpic.ru/thumb/2012/0107/a8/1186d69bbc73a7365ee20237177117a8.jpeg http://i27.fastpic.ru/thumb/2012/0107/b2/0bc46144944d83dcdd0888f5a394e8b2.jpeg
http://i30.fastpic.ru/thumb/2012/0107/db/4d96438e7b9254614e73858925c5f7db.jpeg http://i28.fastpic.ru/thumb/2012/0107/7a/a6c1829ffafc5094496770ec307d617a.jpeg http://i32.fastpic.ru/thumb/2012/0107/0b/6b4876d3f8900b17ec06833f9c63750b.jpeg http://i30.fastpic.ru/thumb/2012/0107/d5/723b242b1d2e1d3d6d41ed5b4267c3d5.jpeg http://i32.fastpic.ru/thumb/2012/0107/4d/8c1ab0e2fd75cfb0eda9f55191d3e74d.jpeg
http://i27.fastpic.ru/thumb/2012/0107/1d/4c4a91c43ea8cfc37203caf9b2120f1d.jpeg http://i29.fastpic.ru/thumb/2012/0107/8a/c156e4435f2aec01186efd624ddd4b8a.jpeg http://i32.fastpic.ru/thumb/2012/0107/fc/0fae31669f386cf731b762d84e630afc.jpeg http://i27.fastpic.ru/thumb/2012/0107/bd/292f76c360e32d7082190e0f3abab2bd.jpeg http://i30.fastpic.ru/thumb/2012/0107/74/8f189c7c5f633e087aa070bb01ff2b74.jpeg
http://i32.fastpic.ru/thumb/2012/0107/4b/591130a8f12c64e79527bc91bf84684b.jpeg http://i32.fastpic.ru/thumb/2012/0107/9e/37c1522c622cc9a254774f260c74d59e.jpeg http://i27.fastpic.ru/thumb/2012/0107/68/ff3aa7a167b654709f56c94d72051368.jpeg http://i28.fastpic.ru/thumb/2012/0107/dc/994575835ea473b3f695e7d154ddb1dc.jpeg http://i30.fastpic.ru/thumb/2012/0107/89/1e0f7015598154da8ace450ad746e589.jpeg
http://i28.fastpic.ru/thumb/2012/0107/55/6ab1f36bd79c7243a8774507dc5a8555.jpeg http://i32.fastpic.ru/thumb/2012/0107/5d/f149d1ab94f9c12d11873649f2b4f05d.jpeg http://i30.fastpic.ru/thumb/2012/0107/c7/0cfd614bb2d3c772e33515e3d65362c7.jpeg http://i28.fastpic.ru/thumb/2012/0107/b0/6606f7372a5a9c9423c1b58268c740b0.jpeg http://i30.fastpic.ru/thumb/2012/0107/71/f9b8cfbf56dbf5d3a3040961e96eb071.jpeg


Обложка 300 dpi
http://i28.fastpic.ru/thumb/2012/0107/68/4e6acab4be67bbddfd29d2d24fb78568.jpeg http://i31.fastpic.ru/thumb/2012/0107/b6/c5dab798f4730426332c13bb6cf5acb6.jpeg
http://i29.fastpic.ru/thumb/2012/0107/af/3f1d449447bc642d9e8f63e8152a4eaf.jpeg http://i28.fastpic.ru/thumb/2012/0107/f4/a5e3750fb2ba4a15eb2788c6932bd3f4.jpeg http://i31.fastpic.ru/thumb/2012/0107/4a/6fb58d19cd292b1ea9f96adbb608a04a.jpeg http://i31.fastpic.ru/thumb/2012/0107/4f/70147c1310603b4ec34d09493895fd4f.jpeg


Все раздачи сериала
Все раздачи сериала


Лицензия этого издания
http://www.ozon.ru/context/detail/id/3780849/?item=3778241
http://i27.fastpic.ru/big/2012/0107/71/ac626f67db86cef47aa381562cc83b71.png

Внимание! Диски DVD5 и DVD9 рекомендуется записывать программой ImgBurn.
Руководство по пользованию программой можно прочесть здесь.
Раздача от группы:http://static.rutracker.org/ranks/rg_torrents_logo.gif
Скриншоты
Похожие файлы
Загрузка / Обновление
КатегорияСериалы RSS лента
Просмотров97 раз (a)
Взят1 раз (a)
Файлы132
Размер30.83 GB (33,107,002,327 байт)
Добавлен
РаздалViKa  (Искать торренты)
Участники
Участники - Загрузка / Обновление
Просматривают Просматривают Загрузка...

-†- ¿? -†-
« Предыдущая - † Страница † - Следующая »

:: Список Комментариев
Нет комментариев.

 Нет комментариев
Вам запрещенно редактировать, создать или удалять комментарии.
shpv© 2007-2014
Страничка сформирована за 1.458 секунд.
Яндекс.Метрика Rambler's Top100