скачать торрент трекер Friends
 
 Главная  •  Торренты  •  Новые релизы  •  Форум  •   •  Персоны кино  •  Правила  •  ЧаВо

Язык интерфейса
Язык интерфейса:


Привет, Гость
[15] из [15]
Введите Логин:
Введите Пароль:
Регистрация
Восстановить Пароль

Линки
АнекдотыБанкоматВсе теги / меткиДополнительные услугиТехподдержка

Главное Меню
 Главная Торренты Релизы за сегодня Персоны кино Запросы / Предложения (3) Правила ЧаВо Проверка BB кодов Топ 10 Архив новостей Прошлые опросы Форматы файлов Группы Последние комментарии Техподдержка

:: Детали раздачи
Торрент раздача является мультитрекерной — учтите, количество раздающих не будет совпадать с количеством участников на сайте (скачивание на клиентской стороне зависит от настроек uTorrent клиент программы, настройки -> Включить DHT, Обмен пирами и Поиск лок-х пиров).
Если висит надпись, пиры по нулям - не бойтесь, возможность скачать повторно торрент раздачу - есть. Попробуйте, в случае отказа - прокоментируйте или нажмите на "Позвать скачавших".

Янтарный Барон / Серии: 1-12 из 12 (Сергей Басин)

Скачать
Магнет
ПомощьКак скачать раздачу
Поделиться
Теги / Меткибоевик, приключения
Постер
ОписаниеГод выпуска: 2007
Производство: Россия ООО "Кинокомпания Аврора", ООО "Студия "КиноПитер"
Жанр: Боевик, приключения
Продолжительность: 12 x ~ 00:49:00
Субтитры: Нет

Режиссёр: Сергей Басин

В ролях: Алексей Осипов, Юлия Рудина, Эрнст Романов, Сергей Власов, Сергей Агафонов, Алексей Федькин, Александр Глинский, Николай Спиридонов, Борис Бедросов, Эрик Кения, Анна Слынько, Татьяна Пилецкая, Владимир Баранов, Николай Мартон, Михаил Елисеев, Татьяна Мариничева, Роман Жилкин, Алексей Бражников, Александр Цыбульский, Джафар Рассулов, Филипп Азаров, Алена Биккулова, Сергей Васильев, Константин Виссарионов, Юлия Горшенина

Описание: Познакомившись с Леной, внучкой советского разведчика Розанова, бывший охранник губернатора Алексей Бушмин, оказывается втянут в загадочную историю. Вместе с девушкой они находят половину карты, на которой зашифровано место, где немцы спрятали Янтарную Комнату. За бумагой охотится и бывший секретный агент СС Вальтер Фон Дорст, приехавший спустя 60 лет в Кёнигсберг со своими подручными. Узнают об этом и местные бандиты во главе с авторитетом по кличке Янтарный барон и правоохранительные органы. Кто же придёт первым в гонке, награда в которой легендарная Янтарная Комната... Сериал снят по романам Сергея Соболева "Кондор принимает вызов", "Танго втроем".

Все раздачи сериала
Скачать: СЭМПЛ

Качество: DVDRip (2xDVD-9)
Формат: AVI
Видео кодек: XviD
Аудио кодек: AC3
Видео: 688x400 (1.72:1), 25 fps, XviD build 65 ~1734 kbps avg, 0.25 bit/pixel
Аудио: 48 kHz, AC3 Dolby Digital, 2/0 (L,R) ch, ~192 kbps

Медиа-инфо
General
Complete name : D:\Torrent\Rip\Jantarnyj.baron.(12.seriy.iz.12).2007.DVDRip.Andripan\Jantarnyj.baron.(01.seriya.iz.12).2007.XviD.DVDRip.Andripan.avi
Format : AVI
Format/Info : Audio Video Interleave
File size : 675 MiB
Duration : 48mn 47s
Overall bit rate : 1 934 Kbps
Writing application : VirtualDubMod 1.5.10.3 | www.virtualdub-fr.org || (build 2550/release)
Writing library : VirtualDubMod build 2550/release

Video
ID : 0
Format : MPEG-4 Visual
Format profile : Advanced Simple@L5
Format settings, BVOP : 2
Format settings, QPel : No
Format settings, GMC : No warppoints
Format settings, Matrix : Custom
Codec ID : XVID
Codec ID/Hint : XviD
Duration : 48mn 47s
Bit rate : 1 732 Kbps
Width : 688 pixels
Height : 400 pixels
Display aspect ratio : 16:9
Frame rate : 25.000 fps
Color space : YUV
Chroma subsampling : 4:2:0
Bit depth : 8 bits
Scan type : Progressive
Compression mode : Lossy
Bits/(Pixel*Frame) : 0.252
Stream size : 604 MiB (90%)
Writing library : XviD 65

Audio
ID : 1
Format : AC-3
Format/Info : Audio Coding 3
Mode extension : CM (complete main)
Codec ID : 2000
Duration : 48mn 47s
Bit rate mode : Constant
Bit rate : 192 Kbps
Channel(s) : 2 channels
Channel positions : Front: L R
Sampling rate : 48.0 KHz
Bit depth : 16 bits
Compression mode : Lossy
Stream size : 67.0 MiB (10%)
Alignment : Split accross interleaves
Interleave, duration : 40 ms (1.00 video frame)
Interleave, preload duration : 500 ms


Скриншот с названием
http://s019.radikal.ru/i605/1204/56/fe7bdbc5737b.png



Скриншоты
http://s019.radikal.ru/i643/1204/c0/5d562c474c08.png
http://s019.radikal.ru/i614/1204/d4/5ca8711e6143.png
http://s47.radikal.ru/i117/1204/be/b8d8f59f740f.png
http://s019.radikal.ru/i637/1204/8b/ee1b39877580.png
http://s017.radikal.ru/i405/1204/1f/6288e4efb869.png
http://s019.radikal.ru/i644/1204/ae/9b6f69138baf.png
http://s019.radikal.ru/i644/1204/95/c9183f9cab61.png
http://s019.radikal.ru/i602/1204/47/48d038d31a26.png
http://s019.radikal.ru/i615/1204/ce/c4a69f937de4.png
http://i065.radikal.ru/1204/5e/aaa7802025d8.png
Скриншоты
Похожие файлы
Загрузка / Обновление
КатегорияСериалы RSS лента
Просмотров148 раз (a)
Взят1 раз (a)
Файлы12
Размер7.91 GB (8,496,738,304 байт)
Добавлен
РаздалViKa  (Искать торренты)
Участники
Участники - Загрузка / Обновление
Просматривают Просматривают Загрузка...

-†- ¿? -†-
« Предыдущая - † Страница † - Следующая »

:: Список Комментариев
Нет комментариев.

 Нет комментариев
Вам запрещенно редактировать, создать или удалять комментарии.
shpv© 2007-2014
Страничка сформирована за 0.200 секунд.
Яндекс.Метрика Rambler's Top100