скачать торрент трекер Friends
 
 Главная  •  Торренты  •  Новые релизы  •  Форум  •   •  Персоны кино  •  Правила  •  ЧаВо

Язык интерфейса
Язык интерфейса:


Привет, Гость
[15] из [15]
Введите Логин:
Введите Пароль:
Регистрация
Восстановить Пароль

Линки
АнекдотыБанкоматВсе теги / меткиДополнительные услугиТехподдержка

Главное Меню
 Главная Торренты Релизы за сегодня Персоны кино Запросы / Предложения (3) Правила ЧаВо Проверка BB кодов Топ 10 Архив новостей Прошлые опросы Форматы файлов Группы Последние комментарии Техподдержка

:: Детали раздачи
Торрент раздача является мультитрекерной — учтите, количество раздающих не будет совпадать с количеством участников на сайте (скачивание на клиентской стороне зависит от настроек uTorrent клиент программы, настройки -> Включить DHT, Обмен пирами и Поиск лок-х пиров).
Если висит надпись, пиры по нулям - не бойтесь, возможность скачать повторно торрент раздачу - есть. Попробуйте, в случае отказа - прокоментируйте или нажмите на "Позвать скачавших".

Ангелы войны / Серии: 1-4 из 4 (Татьяна Ходаковская) [2012, Украина, драма, военный, DVD9] R5 Original Rus

Скачать
Магнет
ПомощьКак скачать раздачу
Поделиться
Теги / Меткидрама, военный
Постер
ОписаниеСтрана: Украина
Студия: FILM.UA, WISEVISION
Жанр: драма, военный
Год выпуска: 2012
Российская премьера: 9 мая 2012
Дата выхода DVD в Украине: 31 мая 2012, «Астра DVD»
Дата выхода DVD в России: 26 марта 2013, «Lizard Cinema Trade»
Продолжительность: 180 мин.
Перевод: Оригинал [Лицензия]
Cубтитры: нет
Оригинальная аудиодорожка: русский

Режиссер: Татьяна Ходаковская

В ролях: Богдан Бенюк, Матвей Зубалевич, Александра Тюфтей, Наталья Бузько, Кирилл Полухин, Алексей Шемес, Валентин Касьян, Игорь Гнездилов, Эдуард Безродный, Борис Георгиевский

Описание: Во время войны на оккупированной территории организован фильтрационный немецкий лагерь «Надежда», где проводят опыты над детьми. Особой ценностью считаются близнецы самый ценный материал для опытов. И когда из лагеря удается бежать одному из близнецов, немцы поднимают тревогу, пытаясь отыскать сбежавшего мальчишку. Это усложняет жизнь и жителям ближайшего села, и партизанскому отряду, и даже местным полицаям. В центре развития событий жизнь маленького Пети и трогательная история любви молодой пары полицая Андрея и дочки старосты Нины. Герои раз за разом сталкиваются со смертью близких, противостоянием, недоверием и обманом. Те, кто еще вчера были друзьями, становятся самыми опасными врагами, а те, кому вчера не подали бы руки, откроются с новой стороны.

Бонусы: нет

http://i8.fastpic.ru/big/2010/0729/14/5366b11fc226de284cc03961610da414.png http://www.kinopoisk.ru/rating/646793.gif

Релиз группы:http://i43.fastpic.ru/big/2012/0824/af/df9c8a250f561888ea5277d21939c4af.gif

Все раздачи сериала

Качество: DVD9 R5
Формат: DVD-Video
Видео кодек: MPEG2
Аудио кодек: AC3
Видео: PAL 16:9 (720x576(0.496)) MPEG Video, 25,000 кадр/сек, 5142 Кбит/сек
Аудио: Russian (Dolby AC3, 2 ch) 192 Кбит/сек, 48,0 КГц







DVDInfo
Title: Angely.voiny.2012.DVD9
Size: 7.57 Gb ( 7 940 080,00 KBytes ) - DVD-9
Enabled regions: 1, 2, 3, 4, 5, 6, 7, 8

VTS_01 :
Play Length: 00:00:25+{00:00:25}+{00:00:25}
Video: PAL 4:3 (720x576) VBR
Audio:
Russian (Dolby AC3, 6 ch)
English (Dolby AC3, 6 ch)
English (Dolby AC3, 6 ch)

VTS_02 :
Play Length: 00:49:00
Video: PAL 16:9 (720x576) VBR, Auto Pan&Scan, Auto Letterboxed
Audio:
Russian (Dolby AC3, 2 ch)

VTS_03 :
Play Length: 00:50:26
Video: PAL 16:9 (720x576) VBR, Auto Pan&Scan, Auto Letterboxed
Audio:
Russian (Dolby AC3, 2 ch)

VTS_04 :
Play Length: 00:50:13
Video: PAL 16:9 (720x576) VBR, Auto Pan&Scan, Auto Letterboxed
Audio:
Russian (Dolby AC3, 2 ch)

VTS_05 :
Play Length: 00:51:00
Video: PAL 16:9 (720x576) VBR, Auto Pan&Scan, Auto Letterboxed
Audio:
Russian (Dolby AC3, 2 ch)

* Menus Information *

VIDEO_TS Menu
Video:
PAL 4:3 (720x576) VBR
English Language Unit :
Title Menu

VTS_01 Menu
Video:
PAL 4:3 (720x576) VBR
Audio:
Not specified (Dolby AC3, 2 ch)
English Language Unit :
Root Menu
Chapter (PTT) Menu

VTS_02 Menu
Video:
PAL 4:3 (720x576) VBR
English Language Unit :
Root Menu
Chapter (PTT) Menu

VTS_03 Menu
Video:
PAL 4:3 (720x576) VBR
English Language Unit :
Root Menu
Chapter (PTT) Menu

VTS_04 Menu
Video:
PAL 4:3 (720x576) VBR
English Language Unit :
Root Menu
Chapter (PTT) Menu

VTS_05 Menu
Video:
PAL 4:3 (720x576) VBR
English Language Unit :
Root Menu
Chapter (PTT) Menu


MediaInfo
Общее
Полное имя : L:\Новинки 2013\Angely.voiny.2012.DVD9\VIDEO_TS\VTS_03_1.VOB
Формат : MPEG-PS
Размер файла : 1024 Мбайт
Продолжительность : 26 м.
Режим общего битрейта : Переменный
Общий поток : 5443 Кбит/сек

Видео
Идентификатор : 224 (0xE0)
Формат : MPEG Video
Версия формата : Version 2
Профиль формата : Main@Main
Параметр BVOP формата : Да
Параметр матрицы формата : Выборочная
Параметр GOP формата : Variable
Продолжительность : 26 м.
Вид битрейта : Переменный
Битрейт : 5142 Кбит/сек
Максимальный битрейт : 8000 Кбит/сек
Ширина : 720 пикселей
Высота : 576 пикселей
Соотношение сторон : 16:9
Частота кадров : 25,000 кадров/сек
Стандарт вещания : PAL
Цветовое пространство : YUV
Субдискретизация насыщенности : 4:2:0
Битовая глубина : 8 бит
Тип развёртки : Прогрессивная
Метод сжатия : С потерями
Бит/(Пиксели*Кадры) : 0.496
Размер потока : 967 Мбайт (94%)

Аудио
Идентификатор : 189 (0xBD)-128 (0x80)
Формат : AC-3
Формат/Информация : Audio Coding 3
Расширение режима : CM (complete main)
Параметр Endianness формата : Big
Режим смешивания : DVD-Video
Продолжительность : 26 м.
Вид битрейта : Постоянный
Битрейт : 192 Кбит/сек
Каналы : 2 канала
Расположение каналов : Front: L R
Частота : 48,0 КГц
Битовая глубина : 16 бит
Метод сжатия : С потерями
Размер потока : 36,1 Мбайт (4%)


Скриншоты меню
http://i52.fastpic.ru/thumb/2013/0327/1e/cd5fdc7716a6851ff4a43fae9fe0cd1e.jpeg http://i52.fastpic.ru/thumb/2013/0327/e4/6f04d0c57ad880f330c5a953a5ec3ae4.jpeg


Скриншоты сериала
http://i52.fastpic.ru/thumb/2013/0327/d0/770891696fb958c8db49e73e8d1397d0.jpeg http://i52.fastpic.ru/thumb/2013/0327/39/3020c5ae28a78a0100357af5d7409c39.jpeg http://i52.fastpic.ru/thumb/2013/0327/3b/e3565f53ce3291a5a8154d3c91792b3b.jpeg http://i52.fastpic.ru/thumb/2013/0327/88/b57a2353942258e7b057644cea14d388.jpeg http://i52.fastpic.ru/thumb/2013/0327/44/a2cf88b65d084cffaae99aa568e48b44.jpeg http://i52.fastpic.ru/thumb/2013/0327/28/57d49ad766b167f0ed7c0c4ff7891828.jpeg http://i52.fastpic.ru/thumb/2013/0327/d9/bbd12d0bd9f741b71c59b2bb40782ad9.jpeg http://i52.fastpic.ru/thumb/2013/0327/63/953ad364d3fbc61b2605f3c0ba8a5d63.jpeg http://i52.fastpic.ru/thumb/2013/0327/fa/ea897035ddf1d7231b1779b2b7de07fa.jpeg http://i52.fastpic.ru/thumb/2013/0327/ea/4f1f041cb30bd10833ca734c18a95dea.jpeg







Раздача от группы:http://static.rutracker.org/ranks/rg_torrents_logo.gif
Похожие файлы
Загрузка / Обновление
КатегорияСериалы RSS лента
Просмотров127 раз (a)
Взят0 раз (a)
Файлы26
Размер7.57 GB (8,130,641,920 байт)
Добавлен
РаздалViKa  (Искать торренты)
Участники
Участники - Загрузка / Обновление
Просматривают Просматривают Загрузка...

-†- ¿? -†-
« Предыдущая - † Страница † - Следующая »

:: Список Комментариев
Нет комментариев.

 Нет комментариев
Вам запрещенно редактировать, создать или удалять комментарии.
shpv© 2007-2014
Страничка сформирована за 0.202 секунд.
Яндекс.Метрика Rambler's Top100