скачать торрент трекер Friends
 
 Главная  •  Торренты  •  Новые релизы  •  Форум  •   •  Персоны кино  •  Правила  •  ЧаВо

Язык интерфейса
Язык интерфейса:


Привет, Гость
[15] из [15]
Введите Логин:
Введите Пароль:
Регистрация
Восстановить Пароль

Линки
АнекдотыБанкоматВсе теги / меткиДополнительные услугиТехподдержка

Главное Меню
 Главная Торренты Релизы за сегодня Персоны кино Запросы / Предложения (3) Правила ЧаВо Проверка BB кодов Топ 10 Архив новостей Прошлые опросы Форматы файлов Группы Последние комментарии Техподдержка

:: Детали раздачи
Торрент раздача является мультитрекерной — учтите, количество раздающих не будет совпадать с количеством участников на сайте (скачивание на клиентской стороне зависит от настроек uTorrent клиент программы, настройки -> Включить DHT, Обмен пирами и Поиск лок-х пиров).
Если висит надпись, пиры по нулям - не бойтесь, возможность скачать повторно торрент раздачу - есть. Попробуйте, в случае отказа - прокоментируйте или нажмите на "Позвать скачавших".

Во саду ли, в огороде / Серии: 1-4 из 4 (Максим Демченко)

Скачать
Магнет
ПомощьКак скачать раздачу
Поделиться
Теги / Меткимелодрама
Постер
ОписаниеГод выпуска: 2012
Производство: ООО "Тесей"
Жанр: Мелодрама
Продолжительность: ~00:43:00
Субтитры: нет

Режиссёр: Максим Демченко

В ролях: Наталья Рогожкина, Владимир Литвинов, Александра Кривошей, Иван Краско, Татьяна Мархель, Лариса Маршалова, Елена Дубровская, Максим Демченко, Алексей Сенчило, Александр Островский

Описание: Сорокопятилетняя «баба-ягодка» Валентина живет в деревне. Она пользуется любовью и уважением односельчан. Но она одинока – ее муж ушел от нее много лет назад, а дочь-красавица учится в областном центре и приезжает домой редко. Неожиданно на стихийном митинге односельчане смещают проворовавшегося Главу сельсовета и выбирают на его место Валентину. И хотя она только временно исполняет обязанности Главы, Валентина не привыкла работать вполсилы. Она со свойственной ей смекалкой и находчивостью решает ворох навалившихся проблем по благоустройству деревни, даже привозит нового фельдшера Николая и восстанавливает медпункт. Однако бывший Глава, продажный чиновник из районного центра и бухгалтер, который так и остался работать в сельсовете, хотят сместить Валентину и повесить на нее все недостачи, образовавшиеся во время правления бывшего Главы. Дело чуть не доходит до тюрьмы. А тут еще возвращается дочь Ольга и заявляет, что решила бросить учебу. А вскоре выясняется, что Ольга беременна…
Валентине приходится нелегко, но, благодаря своей стойкости, жизнерадостности и смекалке, а также Николаю, с которым у нее завязываются романтические отношения, ей удается с честью выйти из всех испытаний.

Все раздачи сериала: Во саду ли, в огороде

http://i29.fastpic.ru/big/2011/1030/ea/b1cf2ef64e49d1b69670beab9a74f7ea.png

Качество: HDTVRip 720p [Рип с HDTV 1080i]
Формат: MKV
Видео кодек: H.264
Аудио кодек: MPEG Audio
Видео: x264, 1280 х 720 (16:9), 25,000 кадр/сек, ~ 3850 Кбит/сек, (0,167 bit/pixel)
Аудио: MPEG Audio 48000Hz stereo 192 Кбит/сек

Сторонней рекламы нет!

MediaInfo


ОбщееУникальный идентификатор : 225811656425049598928497695315967279752 (0xA9E1BE3B26965ACC8BF85F508FDB0288)Полное имя : E:\Downloads\55\Во саду ли, в огороде HDTVRip 720p\Во саду ли, в огороде 01_02_серия_HDTVRip_ 720p_by_Серый1779.mkvФормат : MatroskaРазмер файла : 2,35 ГбайтПродолжительность : 1 ч. 23 м.Общий поток : 4044 Кбит/секДата кодирования : UTC 2013-05-09 15:26:09Программа кодирования : mkvmerge v4.9.1 ('Ich will') built on Sep 21 2011 17:48:11Библиотека кодирования : libebml v1.2.1 + libmatroska v1.2.0

ВидеоИдентификатор : 1Формат : AVCФормат/Информация : Advanced Video CodecПрофиль формата : High@L4.1Параметр CABAC формата : ДаПараметр ReFrames формата : 9 кадровИдентификатор кодека : V_MPEG4/ISO/AVCПродолжительность : 1 ч. 23 м.Битрейт : 3850 Кбит/секШирина : 1280 пикс.Высота : 720 пикс.Соотношение сторон : 16:9Частота кадров : 25,000 кадр/секЦветовое пространство : YUVПодвыборка цветности : 4:2:0Битовая глубина : 8 битТип развёртки : ПрогрессивнаяБит/(Пиксели*Кадры) : 0.167Размер потока : 2,19 Гбайт (93%)Библиотека кодирования : x264 core 118 r2085 8a62835Настройки программы : cabac=1 / ref=9 / deblock=1:-3:-3 / analyse=0x3:0x133 / me=umh / subme=9 / psy=1 / psy_rd=1.00:0.15 / mixed_ref=1 / me_range=32 / chroma_me=1 / trellis=2 / 8x8dct=1 / cqm=0 / deadzone=21,11 / fast_pskip=0 / chroma_qp_offset=-3 / threads=3 / sliced_threads=0 / nr=0 / decimate=1 / interlaced=0 / bluray_compat=0 / constrained_intra=0 / bframes=9 / b_pyramid=2 / b_adapt=2 / b_bias=0 / direct=3 / weightb=1 / open_gop=0 / weightp=2 / keyint=250 / keyint_min=25 / scenecut=40 / intra_refresh=0 / rc=2pass / mbtree=0 / bitrate=3850 / ratetol=1.0 / qcomp=0.60 / qpmin=0 / qpmax=69 / qpstep=4 / cplxblur=20.0 / qblur=0.5 / ip_ratio=1.40 / pb_ratio=1.30 / aq=2:0.70Основные цвета : BT.709-5, BT.1361, IEC 61966-2-4, SMPTE RP177Характеристики трансфера : BT.709-5, BT.1361Коэффициенты матрицы : BT.709-5, BT.1361, IEC 61966-2-4 709, SMPTE RP177

АудиоИдентификатор : 2Формат : MPEG AudioВерсия формата : Version 1Профиль формата : Layer 2Идентификатор кодека : A_MPEG/L2Идентификатор кодека/Подсказка : MP2Продолжительность : 1 ч. 23 м.Вид битрейта : ПостоянныйБитрейт : 192 Кбит/секКаналы : 2 каналаЧастота : 48,0 КГцМетод сжатия : С потерямиРазмер потока : 114 Мбайт (5%)



h264 log


x264 [info]: frame I:790 Avg QP:19.24 size:148716x264 [info]: frame P:27416 Avg QP:21.92 size: 41363x264 [info]: frame B:96342 Avg QP:24.06 size: 11896x264 [info]: consecutive B-frames: 1.3% 1.8% 15.8% 14.5% 13.4% 51.6% 1.2% 0.2% 0.1% 0.0%x264 [info]: mb I I16..4: 7.4% 75.5% 17.1%x264 [info]: mb P I16..4: 1.3% 7.7% 1.1% P16..4: 55.0% 22.3% 6.4% 1.0% 0.3% skip: 5.0%x264 [info]: mb B I16..4: 0.1% 0.5% 0.1% B16..8: 39.0% 7.3% 2.3% direct: 6.3% skip:44.3% L0:34.2% L1:53.8% BI:12.0%x264 [info]: 8x8 transform intra:75.7% inter:59.4%x264 [info]: direct mvs spatial:99.3% temporal:0.7%x264 [info]: coded y,uvDC,uvAC intra: 82.2% 86.2% 59.3% inter: 25.0% 23.9% 4.1%x264 [info]: i16 v,h,dc,p: 33% 20% 11% 36%x264 [info]: i8 v,h,dc,ddl,ddr,vr,hd,vl,hu: 12% 10% 5% 8% 13% 13% 13% 12% 13%x264 [info]: i4 v,h,dc,ddl,ddr,vr,hd,vl,hu: 12% 9% 3% 8% 15% 14% 14% 11% 13%x264 [info]: i8c dc,h,v,p: 40% 21% 20% 18%x264 [info]: Weighted P-Frames: Y:2.4% UV:1.4%x264 [info]: ref P L0: 47.0% 15.1% 20.7% 3.8% 4.4% 2.4% 2.9% 1.3% 1.8% 0.5% 0.0%x264 [info]: ref B L0: 88.5% 7.3% 1.7% 0.9% 0.6% 0.5% 0.3% 0.2%x264 [info]: ref B L1: 96.0% 4.0%x264 [info]: kb/s:3850.10

x264 [total]: encoded 124548 frames, 2.13 fps, 3850.10 kb/s


Рип: http://i27.fastpic.ru/big/2012/0109/f4/e3cb3b5ce4a312896095daceb5e8bcf4.gif

Раздача группы: http://static.rutracker.org/ranks/rg_humor.gif

Отдельное спасибо [b]mydimka[/b] за предоставление исходника.

Внимание ! Раздача ведётся путём добавления новых серий
Внимание! Раздача ведётся путём добавления новых серий; при каждом добавлении создётся новый торрент. Чтобы начать докачку новой серии, пользователям необходимо сделать следующее:
(1) остановить скачивание,
(2) удалить старый торрент у себя из клиента (старые серии удалять не надо),
(3) скачать новый торрент и запустить его у себя в клиенте вместо старого, при этом указать клиенту путь в старую папку куда и должно происходить скачивание новых серий.
Ваш клиент при этом должен произвести хеширование (проверку) старой папки (если не производит сам - помогите ему сделать это), и будет докачивать только те серии которых у вас ещё нет. Старые серии при этом не удаляются, а продолжают раздаваться!
Eсли вы уже удалили старые серии, то предотвратить повторную закачку старых серий можно, отжав галочку в соответсвующих местах при запуске нового торрента. По возможности, желательно не удалять старые серии как можно дольше чтобы релизёр не столько продолжал раздавать старые серии, а смог сконцентрироваться на новых.

ВНИМАНИЕ! ТОРРЕНТ ПЕРЕЗАЛИТ! ДОБАВЛЕНА 4-ая СЕРИИ!

Скриншоты
http://i1.imageban.ru/thumbs/2013.05.11/a9161ff2aa7237bb2759e34546965a8f.jpg http://i1.imageban.ru/thumbs/2013.05.11/9c82656cc1cb1ffb3c19211740be981c.jpg http://i2.imageban.ru/thumbs/2013.05.11/8e985db007ecd6652bc2cc96a368777d.jpg http://i5.imageban.ru/thumbs/2013.05.11/b144a6abd67488c2dda023e551357bb9.jpg

http://i17.fastpic.ru/big/2011/0302/93/84d6588c7f6e1cc66b53d3103e74fa93.gif[/img][img]http://s60.radikal.ru/i170/1007/6a/664e8d89abdf.gif
Похожие файлы
Загрузка / Обновление
КатегорияСериалы RSS лента
Просмотров73 раз (a)
Взят0 раз (a)
Файлы2
Размер4.90 GB (5,265,119,013 байт)
Добавлен
РаздалViKa  (Искать торренты)
Участники
Участники - Загрузка / Обновление
Просматривают Просматривают Загрузка...

-†- ¿? -†-
« Предыдущая - † Страница † - Следующая »

:: Список Комментариев
Нет комментариев.

 Нет комментариев
Вам запрещенно редактировать, создать или удалять комментарии.
shpv© 2007-2014
Страничка сформирована за 0.075 секунд.
Яндекс.Метрика Rambler's Top100