скачать торрент трекер Friends
 
 Главная  •  Торренты  •  Новые релизы  •  Форум  •   •  Персоны кино  •  Правила  •  ЧаВо

Язык интерфейса
Язык интерфейса:


Привет, Гость
[15] из [15]
Введите Логин:
Введите Пароль:
Регистрация
Восстановить Пароль

Линки
АнекдотыБанкоматВсе теги / меткиДополнительные услугиТехподдержка

Главное Меню
 Главная Торренты Релизы за сегодня Персоны кино Запросы / Предложения (3) Правила ЧаВо Проверка BB кодов Топ 10 Архив новостей Прошлые опросы Форматы файлов Группы Последние комментарии Техподдержка

:: Детали раздачи
Торрент раздача является мультитрекерной — учтите, количество раздающих не будет совпадать с количеством участников на сайте (скачивание на клиентской стороне зависит от настроек uTorrent клиент программы, настройки -> Включить DHT, Обмен пирами и Поиск лок-х пиров).
Если висит надпись, пиры по нулям - не бойтесь, возможность скачать повторно торрент раздачу - есть. Попробуйте, в случае отказа - прокоментируйте или нажмите на "Позвать скачавших".

Возмездие / Сезон: 1 Серии: 1-12 из 12 (Богдан Дробязко, Кирилл Капица)

Скачать
Магнет
ПомощьКак скачать раздачу
Поделиться
Теги / Меткимистика, драма
Постер
ОписаниеГод выпуска: 2011
Производство: кинокомпания "United Multimedia Projects"
Жанр: Мистика, драма
Продолжительность: 0:56
Субтитры: Отсутствуют

Режиссёр: Богдан Дробязко, Кирилл Капица

В ролях: Григорий Антипенко, Наталья Антонова (II), Григорий Сиятвинда, Андрей Руденский, Екатерина Волкова, Борис Галкин, Кристина Пельц, Нодар Мгалоблишвили, Борис Бирман, Руслан Нанава, Борис Смолкин, Рудольф Фурманов, Владимир Чернышов, Людмила Ширяева, Дмитрий Сутырин, Екатерина Марусяк (Толубеева), Петр Журавлёв, Владислав Лобанов, Мирослав Малич, Ольга Медынич, Марина Титова (II), Анна Арланова, Татьяна Ткач, Анатолий Петров, Евгения Игумнова, Артур Ваха, Андрей Астраханцев, Ируте Венгалите, Анна Арефьева
http://i17.fastpic.ru/big/2011/0314/fb/600ec4ad958207243d5d350711dbabfb.jpg[/img][img]http://i17.fastpic.ru/big/2011/0314/60/3da4ed40e440cf8ad9ad
905ee6188e60.jpg[/img][img]http://i17.fastpic.ru/big/2011/0314/82/838a6f7db6b79ad39282ecbe3181c782.jpg[/img][img]http://i17.fastpic.ru/big/2011/0314/f
0/49b52feca005723d0e687ff1a6a359f0.jpg[/img][img]http://i17.fastpic.ru/big/2011/0314/fc/4d54fdf27519b14f79eb1ceb965899fc.jpg[/img][img]http://i17.fast
pic.ru/big/2011/0314/8d/5171ba8f54fdb8b8afda3035bcaa868d.jpg[/img][img]http://i17.fastpic.ru/big/2011/0314/c7/3d6e346571c63ee6ac910b8d034364c7.jpg[/im
g][img]http://i17.fastpic.ru/big/2011/0314/9d/cbdb03acfc810551f098e21808b1819d.jpg[/img][img]http://i17.fastpic.ru/big/2011/0314/d9/4d25574da6e6c465da
a1e28c446ac7d9.jpg[/img][img]http://i17.fastpic.ru/big/2011/0314/78/00bbc01f83f0f2714d56e1b910ea3a78.jpg

Описание: Преуспевающий питерский рекламщик Максим Третьяков возвращаясь домой с корпоративной вечеринки попадает в ДТП, в результате которого погибает цыганка Роза. Максима обвиняют в непреднамеренном убийстве, но дорогой адвокат выигрывает процесс. На выходе из здания суда Третьяков сталкивается с мужем погибшей женщины, который рассказывает ему, что Роза была не простой гадалкой, а феей, спасавшей человеческие жизни. Теперь, в расплату за свое злодеяние, Максиму придется занять еe место, иначе погибнут близкие ему люди….

Доп. информация: Все последующие серии будут размещаться в этой раздаче

http://static.rutracker.org/smiles/icon_arrow.gif
Все раздачи сериала
http://static.rutracker.org/smiles/icon_arrow.gif
Сэмпл

Качество: DVB
Формат: MPEG
Видео кодек: MPEG2
Аудио кодек: MPEG1 Layer 2
Видео: MPEG2 Video 720x576 (4:3) 25.00fps 4174 Kbps 0.403 bit/pixel
Аудио: MPEG Audio 48000Hz stereo 192 Кбит/сек

MI
Общее
Полное имя : D:\CloneDVDTemp\Возмездие\1 серия.mpg
Формат : MPEG-PS
Размер файла : 1,76 Гбайт
Продолжительность : 56 м.
Общий поток : 4454 Кбит/сек

Видео
Идентификатор : 224 (0xE0)
Формат : MPEG Video
Версия формата : Version 2
Профиль формата : Main@Main
Параметр BVOP формата : Да
Параметр матрицы формата : По умолчанию
Параметры GOP формата : M=3, N=12
Продолжительность : 56 м.
Вид битрейта : Переменный
Битрейт : 4174 Кбит/сек
Номинальный битрейт : 15,0 Мбит/сек
Ширина : 720 пикс.
Высота : 576 пикс.
Соотношение сторон : 4:3
Частота кадров : 25,000 кадр/сек
Стандарт вещания : PAL
Цветовое пространство : YUV
Подвыборка цветности : 4:2:0
Битовая глубина : 8 бит
Тип развёртки : Чересстрочная
Порядок развёртки : Верхнее поле первое
Метод сжатия : С потерями
Бит/(Пиксели*Кадры) : 0.403
Размер потока : 1,65 Гбайт (94%)

Аудио
Идентификатор : 192 (0xC0)
Формат : MPEG Audio
Версия формата : Version 1
Профиль формата : Layer 2
Продолжительность : 56 м.
Вид битрейта : Постоянный
Битрейт : 192 Кбит/сек
Канал(ы) : 2 канала(ов)
Частота : 48,0 КГц
Метод сжатия : С потерями
Размер потока : 77,5 Мбайт (4%)


Скриншоты
[img]http://i17.fastpic.ru/thumb/2011/0314/8d/ea6b92e741b45f5b5cedcf9c65ce068d.jpeg[/img][img]http://i17.fastpic.ru/thumb/2011/0314/c2/8079220a8065b7f8146d28534a7339c2.jpeg[/img][img]http://i17.fastpic.ru/thumb/2011/0314/d1/e472113f295ff68529e6900a6c6145d1.jpeg[/img][img]http://i17.fastpic.ru/thumb/2011/0314/47/0c4a13e2ee4a0d7ce9ada96464787547.jpeg" alt="http://i17.fastpic.ru/thumb/2011/0314/b2/4b2234cf032d200d67c6cf16c4de30b2.jpeg[/img][img]http://i17.fastpic.ru/thumb/2011/0314/8d/ea6b92e741b45f5b5cedcf9c65ce068d.jpeg[/img][img]http://i17.fastpic.ru/thumb/2011/0314/c2/8079220a8065b7f8146d28534a7339c2.jpeg[/img][img]http://i17.fastpic.ru/thumb/2011/0314/d1/e472113f295ff68529e6900a6c6145d1.jpeg[/img][img]http://i17.fastpic.ru/thumb/2011/0314/47/0c4a13e2ee4a0d7ce9ada96464787547.jpeg" />
Похожие файлы
Загрузка / Обновление
КатегорияСериалы RSS лента
Просмотров109 раз (a)
Взят2 раз (a)
Файлы12
Размер18.95 GB (20,345,161,776 байт)
Добавлен
РаздалViKa  (Искать торренты)
Участники
Участники - Загрузка / Обновление
Просматривают Просматривают Загрузка...

-†- ¿? -†-
« Предыдущая - † Страница † - Следующая »

:: Список Комментариев
Нет комментариев.

 Нет комментариев
Вам запрещенно редактировать, создать или удалять комментарии.
shpv© 2007-2014
Страничка сформирована за 0.122 секунд.
Яндекс.Метрика Rambler's Top100