скачать торрент трекер Friends
 
 Главная  •  Торренты  •  Новые релизы  •  Форум  •   •  Персоны кино  •  Правила  •  ЧаВо

Язык интерфейса
Язык интерфейса:


Привет, Гость
[15] из [15]
Введите Логин:
Введите Пароль:
Регистрация
Восстановить Пароль

Линки
АнекдотыБанкоматВсе теги / меткиДополнительные услугиТехподдержка

Главное Меню
 Главная Торренты Релизы за сегодня Персоны кино Запросы / Предложения (3) Правила ЧаВо Проверка BB кодов Топ 10 Архив новостей Прошлые опросы Форматы файлов Группы Последние комментарии Техподдержка

:: Детали раздачи
Торрент раздача является мультитрекерной — учтите, количество раздающих не будет совпадать с количеством участников на сайте (скачивание на клиентской стороне зависит от настроек uTorrent клиент программы, настройки -> Включить DHT, Обмен пирами и Поиск лок-х пиров).
Если висит надпись, пиры по нулям - не бойтесь, возможность скачать повторно торрент раздачу - есть. Попробуйте, в случае отказа - прокоментируйте или нажмите на "Позвать скачавших".

Стрелок / Серии: 1-4 из 4 (Арман Геворгян) [2012, Россия, боевик, DVD9] R5 Original Rus

Скачать
Магнет
ПомощьКак скачать раздачу
Поделиться
Теги / Меткибоевик
Описаниеhttp://i34.fastpic.ru/big/2012/0503/3a/c41b807e151692f69da942448431f53a.jpg

Страна: Россия
Студия: Студия Берг Саунд
Жанр: боевик
Год выпуска: 2012
Российская премьера: 1 мая 2012
Дата выхода DVD: 26 апреля 2012, «Мистерия Звука»
Продолжительность: 196 мин.
Перевод: Оригинал [Лицензия]
Cубтитры: нет
Оригинальная аудиодорожка: русский

Режиссер: Арман Геворгян

В ролях: Евгений Березовский, Юрий Кормушин, Виктор Фалалеев, Александр Песков, Абел Абелян, Виген Степанян, Сергей Апрельский

Описание: Каждый из них потерял своего напарника. Всё вместе они уйдут в горы, чтобы отомстить и остановить подготовку серии кровавых терактов. Кто из них выживет, кто выполнит задание, кто останется человеком, а кто станет предателем? Пока не известно. Главное, что в горах нет друзей и врагов! Есть только цель, долг, честь и желание выжить.

Бонусы: нет

http://i8.fastpic.ru/big/2010/0729/14/5366b11fc226de284cc03961610da414.png http://www.kinopoisk.ru/rating/677722.gif

Релиз группы:http://i27.fastpic.ru/big/2012/0107/11/62f2e0a43382db869e5a1a0d7962ad11.gif

Все раздачи сериала

Качество: DVD9 R5
Формат: DVD-Video
Видео кодек: MPEG2
Аудио кодек: AC3
Видео: PAL 16:9 (720x576(0.428)) MPEG Video, 25,000 кадр/сек, 4442 Кбит/сек
Аудио: Russian (Dolby AC3, 2 ch) 256 Кбит/сек, 48,0 КГц







DVDInfo
Title:
Size: 7.17 Gb ( 7 516 996 KBytes ) - DVD-9
Enabled regions: 1, 2, 3, 4, 5, 6, 7, 8

VTS_01 :
Play Length: 00:00:16+02:59:31
Video: PAL 16:9 (720x576) VBR, Auto Pan&Scan
Audio:
Russian (Dolby AC3, 2 ch)

Menu Video:
NTSC 4:3 (720x480) VBR
Auto Pan&Scan, Auto Letterboxed
Menu Russian Language Unit :


MediaInfo
Общее
Полное имя : J:\Новинки 2012\Strelok.2012.DVD9\VIDEО_TS\VTS_01_1.VOB
Формат : MPEG-PS
Размер файла : 1024 Мбайт
Продолжительность : 29 м.
Режим общего битрейта : Переменный
Общий поток : 4793 Кбит/сек

Видео
Идентификатор : 224 (0xE0)
Формат : MPEG Video
Версия формата : Version 2
Профиль формата : Main@Main
Параметр BVOP формата : Да
Параметр матрицы формата : Выборочная
Продолжительность : 29 м.
Вид битрейта : Переменный
Битрейт : 4442 Кбит/сек
Максимальный битрейт : 8000 Кбит/сек
Ширина : 720 пикселей
Высота : 576 пикселей
Соотношение сторон : 16:9
Частота кадров : 25,000 кадров/сек
Стандарт вещания : PAL
Цветовое пространство : YUV
Субдискретизация насыщенности : 4:2:0
Битовая глубина : 8 бит
Метод сжатия : С потерями
Бит/(Пиксели*Кадры) : 0.428
Размер потока : 949 Мбайт (93%)

Аудио
Идентификатор : 189 (0xBD)-128 (0x80)
Формат : AC-3
Формат/Информация : Audio Coding 3
Расширение режима : CM (complete main)
Параметр Endianness формата : Big
Режим смешивания : DVD-Video
Продолжительность : 29 м.
Вид битрейта : Постоянный
Битрейт : 256 Кбит/сек
Каналы : 2 канала
Расположение каналов : Front: L R
Частота : 48,0 КГц
Битовая глубина : 16 бит
Метод сжатия : С потерями
Задержка видео : -50 мс.
Размер потока : 54,7 Мбайт (5%)


Скриншоты меню
http://i2.imageban.ru/thumbs/2012.05.04/0796e6d91cfd8360d783a430c97fb34d.png http://i1.imageban.ru/thumbs/2012.05.04/71fcf1f289dee95734bd2e03012518b8.png


Скриншоты сериала
http://i2.imageban.ru/thumbs/2012.05.04/58d7fac816d16cce3acd0e5118886a2f.png http://i4.imageban.ru/thumbs/2012.05.04/4bd299834df25754689285426d649b83.png http://i3.imageban.ru/thumbs/2012.05.04/f1c7f782074f25de78c8df68de866da8.png http://i2.imageban.ru/thumbs/2012.05.04/0a77c266f02a8b7a4cc0cc3ef0e7bbb2.png http://i1.imageban.ru/thumbs/2012.05.04/738d4d4028a30db05a7b9c515c913624.png http://i3.imageban.ru/thumbs/2012.05.04/6f05f022fca9d1d7f7a51e4406bb6e6d.png http://i4.imageban.ru/thumbs/2012.05.04/0fbd673c19fe41ee35b3a9406afb42b7.png http://i4.imageban.ru/thumbs/2012.05.04/91f588f999e0850a8bf48ca9b3d9f9f9.png http://i2.imageban.ru/thumbs/2012.05.04/081eba979cadb5df2629bc1a36dc3cf6.png http://i2.imageban.ru/thumbs/2012.05.04/fabcb480f0d1aaddb1dbb8e7cf90d069.png







Раздача от группы:http://static.rutracker.org/ranks/rg_torrents_logo.gif
Похожие файлы
Загрузка / Обновление
КатегорияСериалы RSS лента
Просмотров70 раз (a)
Взят3 раз (a)
Файлы13
Размер7.17 GB (7,697,403,904 байт)
Добавлен
РаздалViKa  (Искать торренты)
Участники
Участники - Загрузка / Обновление
Просматривают Просматривают Загрузка...

-†- ¿? -†-
« Предыдущая - † Страница † - Следующая »

:: Список Комментариев
Нет комментариев.

 Нет комментариев
Вам запрещенно редактировать, создать или удалять комментарии.
shpv© 2007-2014
Страничка сформирована за 0.229 секунд.
Яндекс.Метрика Rambler's Top100