скачать торрент трекер Friends
 
 Главная  •  Торренты  •  Новые релизы  •  Форум  •   •  Персоны кино  •  Правила  •  ЧаВо

Язык интерфейса
Язык интерфейса:


Привет, Гость
[15] из [15]
Введите Логин:
Введите Пароль:
Регистрация
Восстановить Пароль

Линки
АнекдотыБанкоматВсе теги / меткиДополнительные услугиТехподдержка

Главное Меню
 Главная Торренты Релизы за сегодня Персоны кино Запросы / Предложения (3) Правила ЧаВо Проверка BB кодов Топ 10 Архив новостей Прошлые опросы Форматы файлов Группы Последние комментарии Техподдержка

:: Детали раздачи
Торрент раздача является мультитрекерной — учтите, количество раздающих не будет совпадать с количеством участников на сайте (скачивание на клиентской стороне зависит от настроек uTorrent клиент программы, настройки -> Включить DHT, Обмен пирами и Поиск лок-х пиров).
Если висит надпись, пиры по нулям - не бойтесь, возможность скачать повторно торрент раздачу - есть. Попробуйте, в случае отказа - прокоментируйте или нажмите на "Позвать скачавших".

Пaрфюмeршa / Серии: 1-8 из 8 (Игoрь Рoйзмaн)

Скачать
Магнет
ПомощьКак скачать раздачу
Поделиться
Теги / Меткимелодрама
Постер
ОписаниеГод выпуска: 2014
Производство: Марс Медиа
Жанр: мелодрама
Продолжительность: 00:46:00
Субтитры: Нет

Режиссёр: Игорь Ройзман

В ролях: Мария Куликова, Наталья Рогожкина, Семён Шкаликов, Николай Быстров, Елена Санаева, Анатолий Голуб, Татьяна Чердынцева

Описание: На должность директора провинциальной парфюмерной фабрики претендуют двое. Наталья – главный технолог, мечтающий о возрождении предприятия и создании новой коллекции духов, и Илья – молодой, амбициозный столичный специалист, который хочет построить на месте фабрики гипермаркет. Но неожиданно для обоих соперничество уступает место другому чувству… Благодаря Наташе Илья научится доверять не только разуму. Благодаря Илье Наталья поверит в себя и создаст свой лучший парфюм, в котором будут безумие страсти и горечь расставания. «Дурнопьян» станет мелодией их любви, в которой есть магия верхней ноты.

Серии:





Доп. информация: Реклама отсутствует!





Релиз группы:: http://static.rutracker.org/pic/rgrs/logo.png





Все раздачи сериала: http://rutracker.org/forum/tracker.php?f=9&nm=Пaрфюмeршa
Сэмпл: http://multi-up.com/947452

Качество: DVB
Формат: MPEG
Видео кодек: MPEG2
Аудио кодек: MPEG1
Видео: MPEG2 Video 720x576 (4:3) 25.00fps ~4636 Kbps (0.447 bit/pixel)
Аудио: MPEG Audio 48000Hz 2 channels 256 Кбит/сек

MI
Общее
Полное имя : W:\Video1\Парфюмерша DVB\Парфюмерша 01 DVB by simka.mpg
Формат : MPEG-PS
Размер файла : 1,61 Гбайт
Продолжительность : 46 м.
Режим общего битрейта : Переменный
Общий поток : 4971 Кбит/сек
Библиотека кодирования : (c) 1998-2010 Womble Multimedia, Inc. / MPEG Video Wizard DVD 5.0.0.114 (01/2010) / Nov 13 2010

Видео
Идентификатор : 224 (0xE0)
Формат : MPEG Video
Версия формата : Version 2
Профиль формата : Main@Main
Параметр BVOP формата : Да
Параметр матрицы формата : Выборочная
Параметр GOP формата : Variable
Продолжительность : 46 м.
Вид битрейта : Переменный
Битрейт : 4636 Кбит/сек
Ширина : 720 пикселей
Высота : 576 пикселей
Соотношение сторон : 4:3
Частота кадров : 25,000 кадров/сек
Стандарт вещания : PAL
Цветовое пространство : YUV
Субдискретизация насыщенности : 4:2:0
Битовая глубина : 8 бит
Тип развёртки : Чересстрочная
Порядок развёртки : Верхнее поле первое
Метод сжатия : С потерями
Бит/(Пиксели*Кадры) : 0.447
TimeCode_FirstFrame : 00:00:00:00
TimeCode_Source : Group of pictures header
Размер потока : 1,49 Гбайт (93%)
Библиотека кодирования : (c) 1998-2010 Womble Multimedia, Inc. / MPEG Video Wizard DVD 5.0.0.114 (01/2010) / Nov 13 2010

Аудио
Идентификатор : 192 (0xC0)
Формат : MPEG Audio
Версия формата : Version 1
Профиль формата : Layer 2
Продолжительность : 46 м.
Вид битрейта : Постоянный
Битрейт : 256 Кбит/сек
Каналы : 2 канала
Частота : 48,0 КГц
Метод сжатия : С потерями
Размер потока : 84,6 Мбайт (5%)


Скриншоты
http://firepic.org/?v=6.2014-02-04_scvqp7yprqgu.png
http://firepic.org/?v=6.2014-02-04_5hpo7m4rwm69.png
http://firepic.org/?v=6.2014-02-04_2umqka9mwp3t.png
http://firepic.org/?v=6.2014-02-04_dhauygesnu8k.png
http://firepic.org/?v=6.2014-02-04_813tdxr6i5ls.png
http://firepic.org/?v=6.2014-02-04_5k6qzx0460nt.png
http://firepic.org/?v=6.2014-02-04_gsbuc960zxt4.png
Похожие файлы
Загрузка / Обновление
КатегорияСериалы RSS лента
Просмотров79 раз (a)
Взят0 раз (a)
Файлы8
Размер12.72 GB (13,654,579,200 байт)
Добавлен
РаздалViKa  (Искать торренты)
Участники
Участники - Загрузка / Обновление
Просматривают Просматривают Загрузка...

-†- ¿? -†-
« Предыдущая - † Страница † - Следующая »

:: Список Комментариев
Нет комментариев.

 Нет комментариев
Вам запрещенно редактировать, создать или удалять комментарии.
shpv© 2007-2014
Страничка сформирована за 0.334 секунд.
Яндекс.Метрика Rambler's Top100