скачать торрент трекер Friends
 
 Главная  •  Торренты  •  Новые релизы  •  Форум  •   •  Персоны кино  •  Правила  •  ЧаВо

Язык интерфейса
Язык интерфейса:


Привет, Гость
[15] из [15]
Введите Логин:
Введите Пароль:
Регистрация
Восстановить Пароль

Линки
АнекдотыБанкоматВсе теги / меткиДополнительные услугиТехподдержка

Главное Меню
 Главная Торренты Релизы за сегодня Персоны кино Запросы / Предложения (3) Правила ЧаВо Проверка BB кодов Топ 10 Архив новостей Прошлые опросы Форматы файлов Группы Последние комментарии Техподдержка

:: Детали раздачи
Торрент раздача является мультитрекерной — учтите, количество раздающих не будет совпадать с количеством участников на сайте (скачивание на клиентской стороне зависит от настроек uTorrent клиент программы, настройки -> Включить DHT, Обмен пирами и Поиск лок-х пиров).
Если висит надпись, пиры по нулям - не бойтесь, возможность скачать повторно торрент раздачу - есть. Попробуйте, в случае отказа - прокоментируйте или нажмите на "Позвать скачавших".

Фаворский / Серии: 1 - 10 из 10 (Дмитрий Светозаров)

Скачать
Магнет
ПомощьКак скачать раздачу
Поделиться
Теги / Меткидетектив
Постер
ОписаниеГод выпуска: 2005
Производство: студия «АСДС»
Жанр: Детектив
Продолжительность: ~ 00:43:00 серия
Субтитры: Отсутствуют

Режиссёр: Дмитрий Светозаров

В ролях: Илья Шакунов, Нодар Мгалоблишвили, Александр Лыков, Валерий Дегтярь, Андрей Зибров, Тара Амирханова, Леонид Неведомский, Анатолий Рудаков, Юрий Оськин, Сергей Бехтерев, Юрий Кузнецов, Марина Макарова, Ольга Онищенко, Роман Агеев, Сергей Андрейчук, Аркадий Волгин, Анна Геллер, Екатерина Кулеш, Зара, Евгений Славский, Светлана Щедрина, Зоя Буряк, Александр Дергапутский, Кристина Кузьмина, Василий Реутов, Алексей Утеганов, Алексей Федотов, Валерий Филонов, Рудольф Фурманов, Олег Белов, Дмитрий Быковский-Ромашов, Дмитрий Поднозов, Николай Молодожён, Надежда Шумилова, Сергей Малахов (II), Борис Чердынцев, Александр Карпухов, Сергей Русскин, Александр Белошев, Виктор Соловьёв (II), Игорь Шибанов, Тамара Колесникова, Мария Луговая, Владимир Горьков, Сергей Жукович, Иван Соколов, Алексей Сильянов, Евгений Баранов, Анна Дюкова, Сергей Мучеников, Виталий Гордиенко

Описание: Авантюрно-приключенческий сериал по мотивам романа Александра Дюма «Граф Монте-Кристо». 1982 год. Александр Богданов — старший помощник на торговом судне Балтийского пароходства, возвращается из зарубежного плавания. В Стокгольме он случайно встречается с пожилой шведкой, которая просит его передать книгу о Карлсоне на английском языке своему старинному другу в Москве...

Релиз: http://i2.fastpic.ru/big/2010/0213/e8/2b174749f23d6e532f2854ecb44e95e8.gif

http://static.rutracker.org/smiles/icon_arrow.gif
Все раздачи сериала
http://static.rutracker.org/smiles/icon_arrow.gif
[b]СЭМПЛ[/b]

Качество: DVB
Формат: MPEG
Видео кодек: MPEG2
Аудио кодек: MPEG1 Layer 2
Видео: MPEG2 Video 720x576 (4:3) 25.00fps 4 190 Kbps, 0.404 bit/pixel
Аудио: MPEG Audio 48000Hz 2 channels 192 Кбит/сек

MI
Complete name : G:\SERIALY\Фаворский_DVB_by_CLIPMAN\Фаворский.01_DVB_by_CLIPMAN.mpg
Format : MPEG-PS
File size : 1.35 GiB
Duration : 43mn 11s
Overall bit rate : 4 471 Kbps

Video
ID : 224 (0xE0)
Format : MPEG Video
Format version : Version 2
Format profile : Main@Main
Format settings, BVOP : Yes
Format settings, Matrix : Default
Duration : 43mn 11s
Bit rate mode : Variable
Bit rate : 4 190 Kbps
Nominal bit rate : 10 000 Kbps
Width : 720 pixels
Height : 576 pixels
Display aspect ratio : 4:3
Frame rate : 25.000 fps
Standard : PAL
Color space : YUV
Chroma subsampling : 4:2:0
Bit depth : 8 bits
Scan type : Interlaced
Scan order : Top Field First
Bits/(Pixel*Frame) : 0.404
Stream size : 1.26 GiB (94%)

Audio
ID : 192 (0xC0)
Format : MPEG Audio
Format version : Version 1
Format profile : Layer 2
Duration : 43mn 11s
Bit rate mode : Constant
Bit rate : 192 Kbps
Channel(s) : 2 channels
Sampling rate : 48.0 KHz
Stream size : 59.3 MiB (4%)


Скриншоты
http://i1.imageban.ru/thumbs/2011.06.28/f932609de9a3923b959936f8343e41cf.png http://i4.imageban.ru/thumbs/2011.06.28/4a0321629f5ebe923643cc435505bb68.png http://i2.imageban.ru/thumbs/2011.06.28/80ea7cdf42692b27c70e129a614df8b0.png http://i4.imageban.ru/thumbs/2011.06.28/a0f853c00880195ee678bd01ee7febd5.png http://i2.imageban.ru/thumbs/2011.06.28/168ca09fc47aef6c1ad23c08f5b835be.png http://i3.imageban.ru/thumbs/2011.06.28/ceac725b51b12cf2996022a929964006.png http://i3.imageban.ru/thumbs/2011.06.28/fe28b494f0ead4df1d26d8a644128672.png
Похожие файлы
Загрузка / Обновление
КатегорияСериалы RSS лента
Просмотров72 раз (a)
Взят2 раз (a)
Файлы10
Размер13.43 GB (14,419,111,976 байт)
Добавлен
РаздалViKa  (Искать торренты)
Участники
Участники - Загрузка / Обновление
Просматривают Просматривают Загрузка...

-†- ¿? -†-
« Предыдущая - † Страница † - Следующая »

:: Список Комментариев
Нет комментариев.

 Нет комментариев
Вам запрещенно редактировать, создать или удалять комментарии.
shpv© 2007-2014
Страничка сформирована за 0.032 секунд.
Яндекс.Метрика Rambler's Top100