скачать торрент трекер Friends
 
 Главная  •  Торренты  •  Новые релизы  •  Форум  •   •  Персоны кино  •  Правила  •  ЧаВо

Язык интерфейса
Язык интерфейса:


Привет, Гость
[15] из [15]
Введите Логин:
Введите Пароль:
Регистрация
Восстановить Пароль

Линки
АнекдотыБанкоматВсе теги / меткиДополнительные услугиТехподдержка

Главное Меню
 Главная Торренты Релизы за сегодня Персоны кино Запросы / Предложения (3) Правила ЧаВо Проверка BB кодов Топ 10 Архив новостей Прошлые опросы Форматы файлов Группы Последние комментарии Техподдержка

:: Детали раздачи
Торрент раздача является мультитрекерной — учтите, количество раздающих не будет совпадать с количеством участников на сайте (скачивание на клиентской стороне зависит от настроек uTorrent клиент программы, настройки -> Включить DHT, Обмен пирами и Поиск лок-х пиров).
Если висит надпись, пиры по нулям - не бойтесь, возможность скачать повторно торрент раздачу - есть. Попробуйте, в случае отказа - прокоментируйте или нажмите на "Позвать скачавших".

Когда на юг улетят журавли / Серии: 1 - 4 из 4 (Юлия Краснова)

Скачать
Магнет
ПомощьКак скачать раздачу
Поделиться
Теги / Меткимелодрама
Описаниеhttp://i16.fastpic.ru/big/2011/0126/b5/75076c055a8fdbc4b2d6b1ec02aa7db5.jpgГод выпуска: 2010
Производство: "Новая студия"
Жанр: Мелодрама
Продолжительность: ~ 00:43:00 серия
Субтитры:Отсутствуют

Режиссёр: Юлия Краснова

В ролях: Мария Аниканова, Дмитрий Миллер, Анна Снаткина, Кирилл Гребенщиков, Михаил Жонин, Дмитрий Суржиков, Нина Антонова, Григорий Боковенко, Лина Будник, Александр Гетманский, Георгий Дрозд, Олеся Жураковская, Инна Капинос, Нина Касторф, Олесь Кацион, Александр Кобзарь, Виталий Линецкий, Дарина Лобода, Владимир Нечепоренко, Нина Нижерадзе, Олег Примогенов

Описание: К бизнесмену Ивану Журбину обращается мать-одиночка Ирина — ей нужны деньги на операцию дочери. Бизнесмен обещает помочь, но забывает.
Отчаявшаяся женщина продаёт квартиру и переезжает в деревню. Тем временем брат Журбина, Пётр, желая завладеть бизнесом, подстраивает автокатастрофу. Чудом выживший Иван доползает до домика в деревне, хозяйкой которого оказывается Ирина…

http://static.rutracker.org/smiles/icon_arrow.gif
Все раздачи сериала
http://static.rutracker.org/smiles/icon_arrow.gif
[b]СЭМПЛ[/b]

Релиз http://i2.fastpic.ru/big/2010/0213/e8/2b174749f23d6e532f2854ecb44e95e8.gif

Качество: DVB
Формат: MPEG
Видео кодек: MPEG2
Аудио кодек: MPEG1 Layer 2
Видео: MPEG2 Video 720x576 (4:3) 25.00fps 5 359 Kbps, 0.517 bit/pixel
Аудио: MPEG Audio 48000Hz stereo 256 Кбит/сек

MI
Complete name : F:\TORENTRAZDACHI\Когда улетят журавли_DVB by CLIPMAN\Когда улетят журавли.01_DVB by CLIPMAN.mpg
Format : MPEG-PS
File size : 1.78 GiB
Duration : 44mn 26s
Overall bit rate : 5 729 Kbps

Video
ID : 224 (0xE0)
Format : MPEG Video
Format version : Version 2
Format profile : Main@Main
Format settings, BVOP : Yes
Format settings, Matrix : Default
Duration : 44mn 26s
Bit rate mode : Variable
Bit rate : 5 359 Kbps
Nominal bit rate : 10 000 Kbps
Width : 720 pixels
Height : 576 pixels
Display aspect ratio : 4:3
Frame rate : 25.000 fps
Standard : PAL
Color space : YUV
Chroma subsampling : 4:2:0
Bit depth : 8 bits
Scan type : Interlaced
Scan order : Top Field First
Bits/(Pixel*Frame) : 0.517
Stream size : 1.66 GiB (94%)

Audio
ID : 192 (0xC0)
Format : MPEG Audio
Format version : Version 1
Format profile : Layer 2
Duration : 44mn 26s
Bit rate mode : Constant
Bit rate : 256 Kbps
Channel(s) : 2 channels
Sampling rate : 48.0 KHz
Video delay : -40ms
Stream size : 81.4 MiB (4%)


Скриншоты
http://i16.fastpic.ru/thumb/2011/0126/84/07fdaeb09db5f826433718febe308e84.jpeg http://i16.fastpic.ru/thumb/2011/0126/10/438d5f099f2e2d0a79442e25b3cde110.jpeg http://i16.fastpic.ru/thumb/2011/0126/92/2984c206998a5eae6ea55701830f3492.jpeg http://i16.fastpic.ru/thumb/2011/0126/27/47ac7db58d31bad9191ae638a33d2f27.jpeg http://i16.fastpic.ru/thumb/2011/0126/09/00199045253eb81c6d099a422d468b09.jpeg http://i16.fastpic.ru/thumb/2011/0126/01/84ccbaa7b8b3a0324e5303483d60fa01.jpeg
Похожие файлы
Загрузка / Обновление
КатегорияСериалы RSS лента
Просмотров81 раз (a)
Взят1 раз (a)
Файлы4
Размер7.08 GB (7,602,931,712 байт)
Добавлен
РаздалViKa  (Искать торренты)
Участники
Участники - Загрузка / Обновление
Просматривают Просматривают Загрузка...

-†- ¿? -†-
« Предыдущая - † Страница † - Следующая »

:: Список Комментариев
Нет комментариев.

 Нет комментариев
Вам запрещенно редактировать, создать или удалять комментарии.
shpv© 2007-2014
Страничка сформирована за 0.273 секунд.
Яндекс.Метрика Rambler's Top100