скачать торрент трекер Friends
 
 Главная  •  Торренты  •  Новые релизы  •  Форум  •   •  Персоны кино  •  Правила  •  ЧаВо

Язык интерфейса
Язык интерфейса:


Привет, Гость
[15] из [15]
Введите Логин:
Введите Пароль:
Регистрация
Восстановить Пароль

Линки
АнекдотыБанкоматВсе теги / меткиДополнительные услугиТехподдержка

Главное Меню
 Главная Торренты Релизы за сегодня Персоны кино Запросы / Предложения (3) Правила ЧаВо Проверка BB кодов Топ 10 Архив новостей Прошлые опросы Форматы файлов Группы Последние комментарии Техподдержка

:: Детали раздачи
Торрент раздача является мультитрекерной — учтите, количество раздающих не будет совпадать с количеством участников на сайте (скачивание на клиентской стороне зависит от настроек uTorrent клиент программы, настройки -> Включить DHT, Обмен пирами и Поиск лок-х пиров).
Если висит надпись, пиры по нулям - не бойтесь, возможность скачать повторно торрент раздачу - есть. Попробуйте, в случае отказа - прокоментируйте или нажмите на "Позвать скачавших".

Хуторянин / Серии: 1-12 из 12 (Виктор Мережко)

Скачать
Магнет
ПомощьКак скачать раздачу
Поделиться
Теги / Меткимелодрама, драма
Постер
ОписаниеГод выпуска: 2013
Производство: ВИМ СТУДИО
Жанр: мелодрама, драма
Продолжительность: ~0:45:00 серия
Субтитры: отсутствуют

Режиссёр: Виктор Мережко

В ролях: Вера Баханкова, Андрей Чернышов, Олег Басилашвили, Игорь Скляр, Светлана Смирнова, Владимир Кошевой, Тата Хачатрян, Саша Дробитько, Анастасия Венкова, Михаил Сидаш, Андрей Павловец, Игорь Фурманюк, Николай Мартон, Варвара Щербакова, Анастасия Рубова

Описание: Как быть, если однажды из-за засилья бандитов и коррумпированных чиновников честно жить и трудиться на собственной земле становится невозможно? Поддаться давлению обстоятельств и навсегда уехать, продав за бесценок хозяйство и землю? Или, несмотря на смертельную опасность и страх за близких людей, бросить преступной системе вызов? "Хуторянин" - социальная драма об отношениях человека и власти. Главный герой Сергей Краснов (Андрей Чернышов) - бывший полковник российской армии и владелец собственного процветающего хутора на юге России. Год назад Краснов столкнулся с произволом чиновников и земельной мафии, но отказался носить взятки и идти на компромиссы. Чтобы сломить несговорчивого офицера, бандиты убили его жену. Краснов остался один с малолетним сыном Ваней и дочкой Ксенией, но все равно не сдался...

Релиз: http://i2.imageban.ru/out/2012/11/20/e578a357671f0643cf4662832e92df53.png

Все раздачи сериала / Сэмпл



Качество: DVB (Express MD1 at 80.0°E)
Формат: MPEG-PS
Видео кодек: MPEG2
Аудио кодек: MP2
Видео: MPEG 2, 720x576 (4:3), 25.000 fps, 5350 Kbps (0.516 bit/pixel)
Аудио: MP2, 48.0 KHz, 2 ch, 256 Kbps, CBR

MediaInfo


ОбщееПолное имя : L:\Раздачи\Хуторянин\Хуторянин.01 [rutracker.org].mpgФормат : MPEG-PSРазмер файла : 1,75 ГбайтПродолжительность : 43 м.Режим общего битрейта : ПеременныйОбщий поток : 5721 Кбит/секБиблиотека кодирования : (c) 1998-2012 Womble Multimedia, Inc. / MPEG Video Wizard DVD 5.0.1.100 (03/2011) / Sep 7 2012

ВидеоИдентификатор : 224 (0xE0)Формат : MPEG VideoВерсия формата : Version 2Профиль формата : Main@MainПараметр BVOP формата : ДаПараметр матрицы формата : ВыборочнаяПараметр GOP формата : M=3, N=15Продолжительность : 43 м.Вид битрейта : ПеременныйБитрейт : 5351 Кбит/секМаксимальный битрейт : 15,0 Мбит/секШирина : 720 пикселейВысота : 576 пикселейСоотношение сторон : 4:3Частота кадров : 25,000 кадров/секСтандарт вещания : PALЦветовое пространство : YUVСубдискретизация насыщенности : 4:2:0Битовая глубина : 8 битТип развёртки : ЧересстрочнаяПорядок развёртки : Верхнее поле первоеМетод сжатия : С потерямиБит/(Пиксели*Кадры) : 0.516TimeCode_FirstFrame : 00:00:00:00TimeCode_Source : Group of pictures headerРазмер потока : 1,64 Гбайт (94%)Библиотека кодирования : (c) 1998-2012 Womble Multimedia, Inc. / MPEG Video Wizard DVD 5.0.1.100 (03/2011) / Sep 7 2012

АудиоИдентификатор : 192 (0xC0)Формат : MPEG AudioВерсия формата : Version 1Профиль формата : Layer 2Продолжительность : 43 м.Вид битрейта : ПостоянныйБитрейт : 256 Кбит/секКаналы : 2 каналаЧастота : 48,0 КГцМетод сжатия : С потерямиЗадержка видео : -80 мс.Размер потока : 80,4 Мбайт (4%)

Меню



Скриншоты
http://i1.imageban.ru/out/2013/04/16/309f03da02be2b2db43df4f84339dc83.png
http://i1.imageban.ru/out/2013/04/16/a1b6269dc14f5ae347ea6fd9a88ea055.png
http://i1.imageban.ru/out/2013/04/16/a22428d56c6046a3aa01093aaa4d066f.png
http://i2.imageban.ru/out/2013/04/16/e13d2c4aa946056b2dfe4f2f69f46daa.png


http://i1.imageban.ru/out/2013/04/16/04f82903607e811c21a2331f45e3b1d8.png
http://i1.imageban.ru/out/2013/04/16/b486bf8a5fcf062c7ab5284e5018326e.png
http://i5.imageban.ru/out/2013/04/16/0d3e8d6845dc20fc0d64b76d5af3a3a6.png
http://i5.imageban.ru/out/2013/04/16/d1757588705c5fefef7ecbd45b1d87c1.png



Раздача ведется путем добавления новых серий
Внимание! Раздача ведётся путём добавления новых серий; при каждом добавлении создаётся новый торрент. Чтобы начать докачку новой серии, пользователям необходимо сделать следующее:
(1) остановить скачивание,
(2) удалить старый торрент у себя из клиента (старые серии удалять не надо),
(3) скачать новый торрент и запустить его у себя в клиенте вместо старого, при этом указать клиенту путь в старую папку куда и должно происходить скачивание новых серий.
Ваш клиент при этом должен произвести хеширование (проверку) старой папки (если не производит сам - помогите ему сделать это), и будет докачивать только те серии которых у вас ещё нет. Старые серии при этом не удаляются, а продолжают раздаваться!
Eсли вы уже удалили старые серии, то предотвратить повторную закачку старых серий можно, отжав галочку в соответствующих местах при запуске нового торрента.
Скриншоты
Похожие файлы
Загрузка / Обновление
КатегорияСериалы RSS лента
Просмотров206 раз (a)
Взят0 раз (a)
Файлы12
Размер20.96 GB (22,505,195,520 байт)
Добавлен
РаздалViKa  (Искать торренты)
Участники
Участники - Загрузка / Обновление
Просматривают Просматривают Загрузка...

-†- ¿? -†-
« Предыдущая - † Страница † - Следующая »

:: Список Комментариев
Нет комментариев.

 Нет комментариев
Вам запрещенно редактировать, создать или удалять комментарии.
shpv© 2007-2014
Страничка сформирована за 0.498 секунд.
Яндекс.Метрика Rambler's Top100