скачать торрент трекер Friends
 
 Главная  •  Торренты  •  Новые релизы  •  Форум  •   •  Персоны кино  •  Правила  •  ЧаВо

Язык интерфейса
Язык интерфейса:


Привет, Гость
[15] из [15]
Введите Логин:
Введите Пароль:
Регистрация
Восстановить Пароль

Линки
АнекдотыБанкоматВсе теги / меткиДополнительные услугиТехподдержка

Главное Меню
 Главная Торренты Релизы за сегодня Персоны кино Запросы / Предложения (3) Правила ЧаВо Проверка BB кодов Топ 10 Архив новостей Прошлые опросы Форматы файлов Группы Последние комментарии Техподдержка

:: Детали раздачи
Торрент раздача является мультитрекерной — учтите, количество раздающих не будет совпадать с количеством участников на сайте (скачивание на клиентской стороне зависит от настроек uTorrent клиент программы, настройки -> Включить DHT, Обмен пирами и Поиск лок-х пиров).
Если висит надпись, пиры по нулям - не бойтесь, возможность скачать повторно торрент раздачу - есть. Попробуйте, в случае отказа - прокоментируйте или нажмите на "Позвать скачавших".

Брак по завещанию 2: Возвращение Сандры / Сезон: 2 Серии: 1-8 из 8 (Василий Сериков) [2011, Россия, Детектив, криминал, DVD9] Original Rus

Скачать
Магнет
ПомощьКак скачать раздачу
Поделиться
Теги / Меткидетектив, криминал
Постер
ОписаниеСтрана: Россия
Жанр: Детектив, криминал
Год выпуска: 2011
Продолжительность: ~ 400 мин

Перевод: Не требуется
Cубтитры: нет
Оригинальная аудиодорожка: русский

Режиссер: Василий Сериков

В ролях: Татьяна Арнтгольц, Павел Делонг, Михаил Самохвалов, Борис Шевченко, Наталья Лукеичева, Александр Армер, Игорь Зотов (II), Денис Яковлев, Нелли Пшенная, Андрей Финягин, Вячеслав Кулаков, Настя Медведик, Галина Петрова, Любовь Зайцева, Александр Рапопорт, Максим Щёголев, Анастасия Четверик, Мария Сёмкина, Татьяна Журавлева

Описание: Сандра разводится со своим мужем Джеймсом и возвращается в Москву. Она сильно тоскует по дочке, которая осталась жить в Лондоне, Джеймс под давлением своей матери пресекает любые попытки Сандры даже поговорить с ней по телефону. Но когда Джеймс оказывается связан с преступной группировкой, которая угрожает его бизнесу и семье, Сандра соглашается помочь. В обмен на возможность видеться с дочерью она достает компромат на лидера этой группировки, однако ситуация все усложняется...

http://www.kinopoisk.ru/rating/647717.gif

Меню: русское / статичное / озвученное

Сэмпл

Тип релиза: DVD9
Контейнер: DVD-Video

Видео: PAL 16:9 / 720x576 / VBR / 8500 kbps / 25.000 fps
Аудио: AC3 / 2 ch / 96 Kbps / 48 KHz

Все раздачи сериала



MediaInfo
F:\Brak.po.zavewaniju.2.2011.DVD-9\VIDEO_TS\VTS_01_3.VOB
General
Complete name : F:\Brak.po.zavewaniju.2.2011.DVD-9\VIDEO_TS\VTS_01_3.VOB
Format : MPEG-PS
File size : 1 024 MiB
Duration : 2mn 56s
Overall bit rate : 48.7 Mbps
Video #224
ID : 224 (0xE0)
Format : MPEG Video
Format version : Version 2
Format profile : Main@Main
Format settings, Matrix : Default
Duration : 2mn 55s
Bit rate mode : Variable
Bit rate : 46.7 Mbps
Width : 720 pixels
Height : 576 pixels
Display aspect ratio : 16:9
Frame rate : 25.000 fps
Standard : PAL
Colorimetry : 4:2:0
Scan type : Progressive
Bits/(Pixel*Frame) : 4.501
Stream size : 979 MiB (96%)
Audio #128
ID : 128 (0x80)
Format : AC-3
Format/Info : Audio Coding 3
Duration : 2mn 56s
Bit rate mode : Constant
Bit rate : 96.0 Kbps
Channel(s) : 2 channels
Channel positions : L R
Sampling rate : 48.0 KHz
Video delay : -736ms
Stream size : 2.02 MiB (0%)


DVDInfo
Title:
Size: 7.82 Gb ( 8 199 946 KBytes ) - DVD-9
Enabled regions: 1, 2, 3, 4, 5, 6, 7, 8

VTS_01 :
Play Length: 00:47:43+00:48:37+00:47:48+00:48:01+00:50:23+00:48:46+00:49:20
Video: PAL 16:9 (720x576) VBR, Auto Pan&Scan
Audio:
English (Dolby AC3, 2 ch)

VTS_02 :
Play Length: 00:00:39
Video: PAL 4:3 (720x576) VBR
Audio:
English (Dolby AC3, 2 ch)

VTS_03 :
Play Length: 00:00:44
Video: PAL 4:3 (720x576) VBR
Audio:
English (Dolby AC3, 2 ch)

VTS_04 :
Play Length: 00:01:36
Video: PAL 4:3 (720x576) VBR
Audio:
English (Dolby AC3, 2 ch)

Menu Video:
PAL 4:3 (720x576) VBR
Menu Subtitles:
Not specified
Menu English Language Unit :
Root Menu


Обложка
http://i31.fastpic.ru/thumb/2012/0208/32/a974a6a9af6a66a88c4e59025eca7f32.jpeg http://i29.fastpic.ru/thumb/2012/0208/45/e1db69c314a481daf950093b50f46145.jpeg


Скриншоты меню
http://i27.fastpic.ru/thumb/2012/0208/3a/fe9c2faf81c212706703664bc4e4013a.jpeg http://i29.fastpic.ru/thumb/2012/0208/c7/1c17466c4d73779bdfa0a33d8bc21cc7.jpeg


Скриншоты
http://i31.fastpic.ru/thumb/2012/0208/5f/b6a2f77f05c0063f09dd073b977a1c5f.jpeg http://i30.fastpic.ru/thumb/2012/0208/24/6d947983b75f596f189f32a5cef90524.jpeg
http://i32.fastpic.ru/thumb/2012/0208/d7/c8ad7737dc3d1ad055e4a688516992d7.jpeg http://i27.fastpic.ru/thumb/2012/0208/4a/563b73586260954ba8e83a6efeb6314a.jpeg
http://i32.fastpic.ru/thumb/2012/0208/0b/7cf07749577421deef20acb760a9920b.jpeg http://i27.fastpic.ru/thumb/2012/0208/5e/30e442e607ff0bd239835fc9a050925e.jpeg
Похожие файлы
Загрузка / Обновление
КатегорияСериалы RSS лента
Просмотров135 раз (a)
Взят1 раз (a)
Файлы23
Размер7.82 GB (8,396,744,704 байт)
Добавлен
РаздалViKa  (Искать торренты)
Участники
Участники - Загрузка / Обновление
Просматривают Просматривают Загрузка...

-†- ¿? -†-
« Предыдущая - † Страница † - Следующая »

:: Список Комментариев
Нет комментариев.

 Нет комментариев
Вам запрещенно редактировать, создать или удалять комментарии.
shpv© 2007-2014
Страничка сформирована за 1.049 секунд.
Яндекс.Метрика Rambler's Top100