скачать торрент трекер Friends
 
 Главная  •  Торренты  •  Новые релизы  •  Форум  •   •  Персоны кино  •  Правила  •  ЧаВо

Язык интерфейса
Язык интерфейса:


Привет, Гость
[15] из [15]
Введите Логин:
Введите Пароль:
Регистрация
Восстановить Пароль

Линки
АнекдотыБанкоматВсе теги / меткиДополнительные услугиТехподдержка

Главное Меню
 Главная Торренты Релизы за сегодня Персоны кино Запросы / Предложения (3) Правила ЧаВо Проверка BB кодов Топ 10 Архив новостей Прошлые опросы Форматы файлов Группы Последние комментарии Техподдержка

:: Детали раздачи
Торрент раздача является мультитрекерной — учтите, количество раздающих не будет совпадать с количеством участников на сайте (скачивание на клиентской стороне зависит от настроек uTorrent клиент программы, настройки -> Включить DHT, Обмен пирами и Поиск лок-х пиров).
Если висит надпись, пиры по нулям - не бойтесь, возможность скачать повторно торрент раздачу - есть. Попробуйте, в случае отказа - прокоментируйте или нажмите на "Позвать скачавших".

НЕБО В ОГНЕ /1-12 серии из 12/ (Дмитрий Черкасов)

Скачать
Магнет
ПомощьКак скачать раздачу
Поделиться
Теги / Меткиисторическая драма, военный
Постер
ОписаниеГод выпуска: 2010
Производство: Россия, STAR MEDIA
Жанр: историческая драма, военный
Продолжительность: ~00:48:00
Режиссёр: Дмитрий Черкасов

В ролях: Евгений Пронин, Иван Стебунов, Артем Ткаченко, Владимир Яглыч, Елена Полякова, Юлия Снегирь, Михаил Евланов, Дмитрий Фрид, Владимир Турчинский, Алиса Богарт, Владимир Литвинов

Описание: Одним погожим июньским днем небо зазвучало монотонным гулом воющих бомб и земля окрасилась кровью. Великая Отечественная Война обрушилась на плечи вчерашних выпускников летного училища молодых офицеров – Владимира Самойлова, одессита Костю Марецкого, романтика Колю Воронина и уральского богатыря Василия Астахова.

Война стала их лучшим учителем, превратив в настоящих хозяев неба. При этом друзьям предстоит познать все ужасы войны – проверить свою дружбу, найти настоящую любовь и потерять, видеть как умирают близкие, сохранить честь и достоинство и быть готовым к смерти каждую минуту... не все из них вернутся домой, чтобы встретить долгожданную победу со слезами на глазах.

Все раздачи сериала: http://rutracker.org/forum/tracker.php?nm=%D0%BD%D0...1%81%D0%BE%D0%B2
Сэмпл: http://multi-up.com/822322

Качество: WEBRip 1080p
Формат: MKV
Видео кодек: H.264
Аудио кодек: AAC
Видео: MPEG4 Video (H264) 1920x1080 25fps 4000kbps 0.077bit/pixel
Аудио: AAC 44100Hz stereo ~160kbps

MI
Общее
Полное имя : D:\МОИ РАЗДАЧИ\Сериалы HD\НЕБО В ОГНЕ\НЕБО В ОГНЕ HDTV 1080P\НЕБО_В_ОГНЕ_01.MKV
Формат : MPEG-4
Профиль формата : Base Media
Идентификатор кодека : isom
Размер файла : 1,34 Гбайт
Продолжительность : 46 м.
Общий поток : 4157 Кбит/сек
Программа кодирования : Lavf54.22.104

Видео
Идентификатор : 1
Формат : AVC
Формат/Информация : Advanced Video Codec
Профиль формата : High@L4.0
Параметр CABAC формата : Да
Параметр ReFrames формата : 3 кадра
Идентификатор кодека : avc1
Идентификатор кодека/Информация : Advanced Video Coding
Продолжительность : 46 м.
Битрейт : 4000 Кбит/сек
Ширина : 1920 пикселей
Высота : 1080 пикселей
Соотношение сторон : 16:9
Режим частоты кадров : Постоянный
Частота кадров : 25,000 кадров/сек
Цветовое пространство : YUV
Субдискретизация насыщенности : 4:2:0
Битовая глубина : 8 бит
Тип развёртки : Прогрессивная
Бит/(Пиксели*Кадры) : 0.077
Размер потока : 1,29 Гбайт (96%)
Библиотека кодирования : x264 core 120
Настройки программы : cabac=1 / ref=3 / deblock=1:0:0 / analyse=0x3:0x133 / me=umh / subme=7 / psy=1 / psy_rd=1.00:0.00 / mixed_ref=1 / me_range=32 / chroma_me=1 / trellis=2 / 8x8dct=1 / cqm=0 / deadzone=21,11 / fast_pskip=1 / chroma_qp_offset=-2 / threads=12 / sliced_threads=0 / nr=0 / decimate=1 / interlaced=0 / bluray_compat=0 / constrained_intra=0 / bframes=0 / weightp=0 / keyint=75 / keyint_min=26 / scenecut=40 / intra_refresh=0 / rc_lookahead=50 / rc=2pass / mbtree=0 / bitrate=4000 / ratetol=1.0 / qcomp=0.20 / qpmin=10 / qpmax=51 / qpstep=4 / cplxblur=20.0 / qblur=0.5 / vbv_maxrate=5000 / vbv_bufsize=5000 / nal_hrd=none / ip_ratio=1.40 / aq=1:1.00
Основные цвета : BT.709
Характеристики трансфера : BT.709
Коэффициенты матрицы : BT.709

Аудио
Идентификатор : 2
Формат : AAC
Формат/Информация : Advanced Audio Codec
Профиль формата : LC
Идентификатор кодека : 40
Продолжительность : 46 м.
Вид битрейта : Постоянный
Битрейт : 151 Кбит/сек
Каналы : 2 канала
Расположение каналов : Front: L R
Частота : 44,1 КГц
Метод сжатия : С потерями
Размер потока : 49,6 Мбайт (4%)


Скриншоты
http://s018.radikal.ru/i509/1301/8c/ba8d0e83f03at.jpg
http://s005.radikal.ru/i212/1301/ce/1b6ff60b2b67t.jpg
http://s06.radikal.ru/i179/1301/30/fcf1c5108e6ft.jpg
http://s017.radikal.ru/i417/1301/3f/b5edeed7724bt.jpg
http://s53.radikal.ru/i139/1301/5a/0cf0a95a4020t.jpg
http://s004.radikal.ru/i205/1301/a4/26d350a8a3e4t.jpg
http://i049.radikal.ru/1301/28/65c56cef72e3t.jpg
http://i049.radikal.ru/1301/1b/c1ee14b454ect.jpg
http://s018.radikal.ru/i525/1301/8b/b9c321e63361t.jpg
http://s020.radikal.ru/i721/1301/3e/007eff35df7ft.jpg
Скриншоты
Похожие файлы
Загрузка / Обновление
КатегорияСериалы RSS лента
Просмотров168 раз (a)
Взят1 раз (a)
Файлы12
Размер16.46 GB (17,677,486,031 байт)
Добавлен
РаздалViKa  (Искать торренты)
Участники
Участники - Загрузка / Обновление
Просматривают Просматривают Загрузка...

-†- ¿? -†-
« Предыдущая - † Страница † - Следующая »

:: Список Комментариев
Нет комментариев.

 Нет комментариев
Вам запрещенно редактировать, создать или удалять комментарии.
shpv© 2007-2014
Страничка сформирована за 0.724 секунд.
Яндекс.Метрика Rambler's Top100