скачать торрент трекер Friends
 
 Главная  •  Торренты  •  Новые релизы  •  Форум  •   •  Персоны кино  •  Правила  •  ЧаВо

Язык интерфейса
Язык интерфейса:


Привет, Гость
[15] из [15]
Введите Логин:
Введите Пароль:
Регистрация
Восстановить Пароль

Линки
АнекдотыБанкоматВсе теги / меткиДополнительные услугиТехподдержка

Главное Меню
 Главная Торренты Релизы за сегодня Персоны кино Запросы / Предложения (3) Правила ЧаВо Проверка BB кодов Топ 10 Архив новостей Прошлые опросы Форматы файлов Группы Последние комментарии Техподдержка

:: Детали раздачи

Фарфоровая свадьба / Сезон: Серии: 1-12 из 12 (Василий Пичул)

Скачать
Магнет
ПомощьКак скачать раздачу
Поделиться
Теги / Меткимелодрама
Постер
ОписаниеГод выпуска: 2011
Производство: МГ медиа
Жанр: Мелодрама
Продолжительность: ~ 45 минут серия
Режиссёр: Василий Пичул

В ролях: Наталия Вдовина, Виктор Раков, Мария Звонарева, Сергей Варчук, Анна Старшенбаум, Игорь Золотовицкий, Галина Польских, Татьяна Догилева, Виктор Проскурин, Александр Семчев, Александра Урсуляк, Екатерина Маликова, Владимир Качан, Юлия Ковалевская

Описание: Фарфор - материал дорогой и красивый, но при неосторожном обращении может разбиться вдребезги.

Принято считать, что через 20 лет в супружеской жизни двух людей наступает очень хрупкое для их отношений время. Именно поэтому этот юбилей и называют "Фарфоровой свадьбой".

Нина - врач, работающая вместе со своим мужем Олегом в одной из московских больниц. В её жизни уже давно всё непросто: проблемы на работе, долги, взрослеющие дети. Однажды Олег предлагает ей торжественно отпраздновать двадцатилетие их брака. Накануне праздника Нина узнает, что супруг долгое время ведёт двойную жизнь. Как поступит она и что будут делать её близкие, столкнувшись в одночасье со множеством трудностей?

Внимание! Раздача ведётся путём добавления новых серий!
Внимание! Раздача ведётся путём добавления новых серий
Внимание! Раздача ведётся путём добавления новых серий; при каждом добавлении создётся новый торрент.
Чтобы начать докачку новой серии, пользователям необходимо сделать следующее:
1) остановить скачивание
2) удалить старый торрент у себя из клиента (старые серии удалять не надо)
3) скачать новый торрент и запустить его у себя в клиенте вместо старого, при этом указать клиенту путь в старую папку куда и должно происходить скачивание новых серий.
Ваш клиент при этом должен произвести хеширование (проверку) старой папки (если не производит сам - помогите ему сделать это), и будет докачивать только те серии которых у вас ещё нет. Старые серии при этом не удаляются, а продолжают раздаваться!
Eсли вы уже удалили старые серии, то предотвратить повторную закачку старых серий можно, отжав галочку в соответствовавших местах при запуске нового торрента.


Качество: DVB
Формат: MPEG
Видео кодек: MPEG2
Аудио кодек: MPEG1
Видео: MPEG2 Video 704x576 (4:3) 25.00fps 2225 Kbps
Аудио: MPEG Audio 48000Hz 2 channels 192 Кбит/сек

Релиз: http://i31.fastpic.ru/big/2011/1003/de/06d38c8432797fa7ee4fe530285b4fde.gif

MI
Общее
Полное имя : D:\riper.am\Фарфоровая свадьба.DVB_by_volk\01 серия.mpg
Формат : MPEG-PS
Размер файла : 825 Мбайт
Продолжительность : 46 м.
Общий поток : 2466 Кбит/сек

Видео
Идентификатор : 224 (0xE0)
Формат : MPEG Video
Версия формата : Version 2
Профиль формата : Main@Main
Параметр BVOP формата : Да
Параметр матрицы формата : Выборочная
Параметр GOP формата : M=1, N=31
Продолжительность : 46 м.
Вид битрейта : Переменный
Битрейт : 2225 Кбит/сек
Максимальный битрейт : 15,0 Мбит/сек
Ширина : 704 пикселя
Высота : 576 пикселей
Соотношение сторон : 4:3
Частота кадров : 25,000 кадров/сек
Стандарт вещания : PAL
Цветовое пространство : YUV
Субдискретизация насыщенности : 4:2:0
Битовая глубина : 8 бит
Тип развёртки : Чересстрочная
Порядок развёртки : Верхнее поле первое
Метод сжатия : С потерями
Бит/(Пиксели*Кадры) : 0.219
Размер потока : 744 Мбайт (90%)

Аудио
Идентификатор : 192 (0xC0)
Формат : MPEG Audio
Версия формата : Version 1
Профиль формата : Layer 2
Продолжительность : 46 м.
Вид битрейта : Постоянный
Битрейт : 192 Кбит/сек
Каналы : 2 канала
Частота : 48,0 КГц
Метод сжатия : С потерями
Размер потока : 64,2 Мбайт (8%)


Скриншоты
http://i30.fastpic.ru/thumb/2011/1003/a0/f8fefb7bd3523b3bbd6ae21cd4dcf8a0.jpeg http://i30.fastpic.ru/thumb/2011/1003/52/320e4fe8a1d96c708e9acf57803e0a52.jpeg http://i30.fastpic.ru/thumb/2011/1003/90/ab1b6a65243244e55250a488017ea790.jpeg http://i30.fastpic.ru/thumb/2011/1003/f5/8cc8e035236dd92756e667aa53fe66f5.jpeg http://i30.fastpic.ru/thumb/2011/1003/93/b0807e9ca78de4ae9a6a1e9dfdd61b93.jpeg http://i30.fastpic.ru/thumb/2011/1003/4b/cd5d95a902f99a9ee88ccfacea6e054b.jpeg

Все раздачи сериала
Семпл
Похожие файлы
Загрузка / Обновление
КатегорияСериалы RSS лента
Просмотров129 раз (a)
Взят1 раз (a)
Файлы12
Размер9.09 GB (9,764,634,624 байт)
Добавлен
РаздалViKa  (Искать торренты)
Участники
Участники - Загрузка / Обновление
Просматривают Просматривают Загрузка...

-†- ¿? -†-
« Предыдущая - † Страница † - Следующая »

:: Список Комментариев
Нет комментариев.

 Нет комментариев
Вам запрещенно редактировать, создать или удалять комментарии.
shpv© 2007-2014
Страничка сформирована за 0.835 секунд.
Яндекс.Метрика Rambler's Top100