скачать торрент трекер Friends
 
 Главная  •  Торренты  •  Новые релизы  •  Форум  •   •  Персоны кино  •  Правила  •  ЧаВо

Язык интерфейса
Язык интерфейса:


Привет, Гость
[15] из [15]
Введите Логин:
Введите Пароль:
Регистрация
Восстановить Пароль

Линки
АнекдотыБанкоматВсе теги / меткиДополнительные услугиТехподдержка

Главное Меню
 Главная Торренты Релизы за сегодня Персоны кино Запросы / Предложения (3) Правила ЧаВо Проверка BB кодов Топ 10 Архив новостей Прошлые опросы Форматы файлов Группы Последние комментарии Техподдержка

:: Детали раздачи
Торрент раздача является мультитрекерной — учтите, количество раздающих не будет совпадать с количеством участников на сайте (скачивание на клиентской стороне зависит от настроек uTorrent клиент программы, настройки -> Включить DHT, Обмен пирами и Поиск лок-х пиров).
Если висит надпись, пиры по нулям - не бойтесь, возможность скачать повторно торрент раздачу - есть. Попробуйте, в случае отказа - прокоментируйте или нажмите на "Позвать скачавших".

Сводная сестра / Серии: 1-4 из 4 (Андрей Канивченко)

Скачать
Магнет
ПомощьКак скачать раздачу
Поделиться
Теги / Меткидрама
Постер
ОписаниеГод выпуска: 2013
Производство: Кинокомпания "Студия Паламеда", Продюсерский центр "Фабула""
Жанр: Драма
Продолжительность: ~0:45:00 серия
Субтитры: нет

Режиссёр: Андрей Канивченко

В ролях: Людмила Свитова, Вероника Пляшкевич, Анатолий Лобоцкий, Валентина Лосовская, Олег Ткачёв, Станислав Бондаренко, Александр Молчанов (II), Андрей Карако, Александр Гиренок, Александр Ефремов (II), Александр Зеленковский, Светлана Аникей, Оксана Лесная, Евгений Ивкович, Юрий Евдачков, Галина Кухальская, Сергей Власов (IV)

Описание: Родители главной героини всегда любили друг друга, и жила она в полной семье, зная о том, что она любимый ребенок. Но после смерти отца, из его прошлого начали всплывать тайны. До знакомства с ее матерью у него была другая женщина, которая родила от него ребенка. И теперь, сводная сестра через много лет объявилась...

Все раздачи сериала: Сводная сестра

http://i29.fastpic.ru/big/2011/1030/ea/b1cf2ef64e49d1b69670beab9a74f7ea.png

Качество: HDTV 1080i
Формат: TS
Видео кодек: H.264
Аудио кодек: MPEG Audio
Видео: MPEG4 Video (H264) 1920x1080, ~ 5872 kbps, 25.00fps 0.113 bit/pixel
Аудио: MPEG Audio, 2 канала, 44,1 КГц, ~256 kbps

Сторонней рекламы нет!

MediaInfo


ОбщееИдентификатор : 1 (0x1)Полное имя : F:\Сводная сестра HDTV 1080i\Svodnaya.sestra 01_02_серия_HDTV 1080i.tsФормат : MPEG-TSРазмер файла : 4,06 ГбайтПродолжительность : 1 ч. 30 м.Общий поток : 6450 Кбит/сек

ВидеоИдентификатор : 4113 (0x1011)Идентификатор меню : 1 (0x1)Формат : AVCФормат/Информация : Advanced Video CodecПрофиль формата : High@L4.1Параметр CABAC формата : ДаПараметр ReFrames формата : 3 кадраИдентификатор кодека : 27Продолжительность : 1 ч. 30 м.Вид битрейта : ПеременныйБитрейт : 5872 Кбит/секМаксимальный битрейт : 40,0 Мбит/секШирина : 1920 пикс.Высота : 1080 пикс.Соотношение сторон : 16:9Частота кадров : 25,000 кадр/секЦветовое пространство : YUVПодвыборка цветности : 4:2:0Битовая глубина : 8 битТип развёртки : ПрогрессивнаяБит/(Пиксели*Кадры) : 0.113Размер потока : 3,70 Гбайт (91%)

АудиоИдентификатор : 4352 (0x1100)Идентификатор меню : 1 (0x1)Формат : MPEG AudioВерсия формата : Version 1Профиль формата : Layer 2Идентификатор кодека : 3Продолжительность : 1 ч. 30 м.Вид битрейта : ПостоянныйБитрейт : 256 Кбит/секКаналы : 2 каналаЧастота : 44,1 КГцМетод сжатия : С потерямиРазмер потока : 165 Мбайт (4%)Язык : English


Раздача группы: http://static.rutracker.org/ranks/rg_humor.gif

Отдельное спасибо [b]ruslanishe[/b] за предоставление исходника.

Внимание ! Раздача ведётся путём добавления новых серий
Внимание! Раздача ведётся путём добавления новых серий; при каждом добавлении создётся новый торрент. Чтобы начать докачку новой серии, пользователям необходимо сделать следующее:
(1) остановить скачивание,
(2) удалить старый торрент у себя из клиента (старые серии удалять не надо),
(3) скачать новый торрент и запустить его у себя в клиенте вместо старого, при этом указать клиенту путь в старую папку куда и должно происходить скачивание новых серий.
Ваш клиент при этом должен произвести хеширование (проверку) старой папки (если не производит сам - помогите ему сделать это), и будет докачивать только те серии которых у вас ещё нет. Старые серии при этом не удаляются, а продолжают раздаваться!
Eсли вы уже удалили старые серии, то предотвратить повторную закачку старых серий можно, отжав галочку в соответсвующих местах при запуске нового торрента. По возможности, желательно не удалять старые серии как можно дольше чтобы релизёр не столько продолжал раздавать старые серии, а смог сконцентрироваться на новых.

ВНИМАНИЕ! ТОРРЕНТ ПЕРЕЗАЛИТ! ДОБАВЛЕНА 4-ая СЕРИИ!

Скриншоты
http://i6.imageban.ru/thumbs/2013.11.03/6e874bd337e7ccbfc5debba087494eac.jpg http://i5.imageban.ru/thumbs/2013.11.03/f2fffdce6e5554bdb81716aba24c4f15.png http://i3.imageban.ru/thumbs/2013.11.03/94c9605f07e581dcabbf9f2899613f09.png

http://i17.fastpic.ru/big/2011/0302/93/84d6588c7f6e1cc66b53d3103e74fa93.gif[/img][img]http://s60.radikal.ru/i170/1007/6a/664e8d89abdf.gif
Похожие файлы
Загрузка / Обновление
КатегорияСериалы RSS лента
Просмотров87 раз (a)
Взят0 раз (a)
Файлы2
Размер8.12 GB (8,716,154,700 байт)
Добавлен
РаздалViKa  (Искать торренты)
Участники
Участники - Загрузка / Обновление
Просматривают Просматривают Загрузка...

-†- ¿? -†-
« Предыдущая - † Страница † - Следующая »

:: Список Комментариев
Нет комментариев.

 Нет комментариев
Вам запрещенно редактировать, создать или удалять комментарии.
shpv© 2007-2014
Страничка сформирована за 0.272 секунд.
Яндекс.Метрика Rambler's Top100