скачать торрент трекер Friends
 
 Главная  •  Торренты  •  Новые релизы  •  Форум  •   •  Персоны кино  •  Правила  •  ЧаВо

Язык интерфейса
Язык интерфейса:


Привет, Гость
[15] из [15]
Введите Логин:
Введите Пароль:
Регистрация
Восстановить Пароль

Линки
АнекдотыБанкоматВсе теги / меткиДополнительные услугиТехподдержка

Главное Меню
 Главная Торренты Релизы за сегодня Персоны кино Запросы / Предложения (3) Правила ЧаВо Проверка BB кодов Топ 10 Архив новостей Прошлые опросы Форматы файлов Группы Последние комментарии Техподдержка

:: Детали раздачи

Верю / Серии: 1-8 из 8 (Александра Бутько)

Скачать
Магнет
ПомощьКак скачать раздачу
Поделиться
Теги / Меткимелодрама
Постер
ОписаниеГод выпуска: 2012
Производство: кинокомпания "Гамма"
Жанр: мелодрама
Продолжительность: ~0:43:00 серия
Субтитры: отсутствуют

Режиссёр: Александра Бутько

В ролях: Григорий Антипенко, Екатерина Вилкова, Вера Васильева, Полина Шулика, Юлия Галкина, Кирилл Жандаров, Евгения Осипова, Александр Ильин (младший), Владимир Сычев, Михаил Тарабукин, Алексей Ильин, Филипп Савинков, Дарья Косынкина, Екатерина Кудринская, Сергей Удовик, Ольга Демидова, Дарья Грачёва, Дмитрий Муляр, Наталья Заякина, Сергей Серов, Лариса Гребенщикова, Юрий Кузнецов, Максим Пешков, Константин Константинов, Андрей Невраев, Наталья Батрак, Валентина Грушина, Александр Орловский, Михаил Бескоровайный, Александр Чевычелов, Ольга Ергина, Николай Рябков, Тимофей Савин, Илья Ильин, Александр Серов-Останкинский, Алексей Багдасаров, Валентина Шарыкина

Описание: Анна — отзывчивая девушка, заботливая мама и талантливый педагог. Но внезапно все, что ей было дорого в жизни, исчезает. Ее увольняют из института, несмотря на то, что совсем недавно она считалась одним из лучших преподавателей. Ее бывший муж — алкоголик Коля случайно поджигает квартиру, в которой она жила с мамой Полиной Евгеньевной и дочкой Дашей. Мама, попав после пожара в больницу, умирает. Так в одночасье Анна остается с ребенком на руках, без квартиры и без работы.



Все раздачи сериала / Сэмпл

Релиз: http://i35.fastpic.ru/big/2012/0503/d2/e92dd6a5459971b9bfb28da90ed258d2.png



Качество: DVB (Express MD1 at 80.0°E)
Формат: MPEG-PS
Видео кодек: MPEG2
Аудио кодек: MP2
Видео: MPEG 2, 720x576 (4:3), 25.000 fps, 5392 Kbps (0.520 bit/pixel)
Аудио: MP2, 48.0 KHz, 2 ch, 256 Kbps, CBR





MediaInfo


ОбщееПолное имя : H:\Раздачи\Верю\Верю.01.mpgФормат : MPEG-PSРазмер файла : 1,73 ГбайтПродолжительность : 43 м.Режим общего битрейта : ПеременныйОбщий поток : 5762 Кбит/секБиблиотека кодирования : (c) 1998-2011 Womble Multimedia, Inc. / MPEG Video Wizard DVD 5.0.1.100 (03/2011) / Dec 19 2011

ВидеоИдентификатор : 224 (0xE0)Формат : MPEG VideoВерсия формата : Version 2Профиль формата : Main@MainПараметр BVOP формата : ДаПараметр матрицы формата : ВыборочнаяПродолжительность : 43 м.Вид битрейта : ПеременныйБитрейт : 5392 Кбит/секМаксимальный битрейт : 10000 Кбит/секШирина : 720 пикселейВысота : 576 пикселейСоотношение сторон : 4:3Частота кадров : 25,000 кадров/секСтандарт вещания : PALЦветовое пространство : YUVСубдискретизация насыщенности : 4:2:0Битовая глубина : 8 битТип развёртки : ЧересстрочнаяПорядок развёртки : Верхнее поле первоеМетод сжатия : С потерямиБит/(Пиксели*Кадры) : 0.520Размер потока : 1,62 Гбайт (94%)Библиотека кодирования : (c) 1998-2011 Womble Multimedia, Inc. / MPEG Video Wizard DVD 5.0.1.100 (03/2011) / Dec 19 2011

АудиоИдентификатор : 192 (0xC0)Формат : MPEG AudioВерсия формата : Version 1Профиль формата : Layer 2Продолжительность : 43 м.Вид битрейта : ПостоянныйБитрейт : 256 Кбит/секКаналы : 2 каналаЧастота : 48,0 КГцМетод сжатия : С потерямиРазмер потока : 78,9 Мбайт (4%)

Меню



Скриншоты
http://i40.fastpic.ru/big/2012/0716/da/1e7d4a8ac97130bf584a2df1e06413da.png
http://i43.fastpic.ru/big/2012/0716/de/00d80de51272742b8d72f9a92d7766de.png
http://i43.fastpic.ru/big/2012/0716/67/42db2c247cec18d024233aa79b1f8967.png
http://i40.fastpic.ru/big/2012/0716/5f/26e5112f06685570d0cd59f62f0a845f.png


http://i43.fastpic.ru/big/2012/0716/ad/bdb7c5c81c9a407680071abc6c1614ad.png
http://i40.fastpic.ru/big/2012/0716/45/dca00c42479e418ab8fe2a4473bba745.png
http://i42.fastpic.ru/big/2012/0716/62/a436649d33b39b6d9531e9319683a162.png
http://i40.fastpic.ru/big/2012/0716/be/c7f2b070e87b5fd4e8a27c71781be0be.png








Раздача ведётся путём добавления новых серий
Раздача ведётся путём добавления новых серий; при каждом добавлении создаётся новый торрент. Чтобы начать докачку новой серии, пользователям необходимо сделать следующее:
(1) остановить скачивание,
(2) удалить старый торрент у себя из клиента (старые серии удалять не надо),
(3) скачать новый торрент и запустить его у себя в клиенте вместо старого, при этом указать клиенту путь в старую папку куда и должно происходить скачивание новых серий.
Ваш клиент при этом должен произвести хеширование (проверку) старой папки (если не производит сам - помогите ему сделать это), и будет докачивать только те серии которых у вас ещё нет. Старые серии при этом не удаляются, а продолжают раздаваться!
Eсли вы уже удалили старые серии, то предотвратить повторную закачку старых серий можно, отжав галочку в соответствующих местах при запуске нового торрента. По возможности, желательно не удалять старые серии как можно дольше чтобы релизёр не столько продолжал раздавать старые серии, а смог сконцентрироваться на новых.
Скриншоты
Похожие файлы
Загрузка / Обновление
КатегорияСериалы RSS лента
Просмотров74 раз (a)
Взят0 раз (a)
Файлы8
Размер13.93 GB (14,959,720,448 байт)
Добавлен
РаздалViKa  (Искать торренты)
Участники
Участники - Загрузка / Обновление
Просматривают Просматривают Загрузка...

-†- ¿? -†-
« Предыдущая - † Страница † - Следующая »

:: Список Комментариев
Нет комментариев.

 Нет комментариев
Вам запрещенно редактировать, создать или удалять комментарии.
shpv© 2007-2014
Страничка сформирована за 0.061 секунд.
Яндекс.Метрика Rambler's Top100