скачать торрент трекер Friends
 
 Главная  •  Торренты  •  Новые релизы  •  Форум  •   •  Персоны кино  •  Правила  •  ЧаВо

Язык интерфейса
Язык интерфейса:


Привет, Гость
[15] из [15]
Введите Логин:
Введите Пароль:
Регистрация
Восстановить Пароль

Линки
АнекдотыБанкоматВсе теги / меткиДополнительные услугиТехподдержка

Главное Меню
 Главная Торренты Релизы за сегодня Персоны кино Запросы / Предложения (3) Правила ЧаВо Проверка BB кодов Топ 10 Архив новостей Прошлые опросы Форматы файлов Группы Последние комментарии Техподдержка

:: Детали раздачи
Торрент раздача является мультитрекерной — учтите, количество раздающих не будет совпадать с количеством участников на сайте (скачивание на клиентской стороне зависит от настроек uTorrent клиент программы, настройки -> Включить DHT, Обмен пирами и Поиск лок-х пиров).
Если висит надпись, пиры по нулям - не бойтесь, возможность скачать повторно торрент раздачу - есть. Попробуйте, в случае отказа - прокоментируйте или нажмите на "Позвать скачавших".

Туман 2 / Сезон: 2 / Серии: 1-4 из 4 (Иван Шурховецкий)

Скачать
Магнет
ПомощьКак скачать раздачу
Поделиться
Теги / Меткифантастика, драма, военный
Описаниеhttp://i35.fastpic.ru/big/2012/0505/37/33a5b474be781a0a1f5c9080660bd037.jpgГод выпуска: 2012
Производство: Россия
Жанр: фантастика, драма, военный
Продолжительность: 02:57:09
Режиссёр: Иван Шурховецкий

В ролях: Григорий Калинин, Дмитрий Сергин, Артем Крестников, Иван Лапин, Алексей Марков

Описание: Во время празднования Дня Победы герои понимают, что тематическая военная вечеринка сменилась реальностью фашистского тыла. Пятеро парней, известных зрителям по первой части фильма, оказываются в немецкой пивной. В суматохе боя им удается бежать, однако в неразберихе «пришельцы из 21 века» случайно ранят красноармейца по фамилии Кантария. Друзья понимают, что если тот не выживет, то изменится ход истории - кто же будет водружать флаг на Рейхстаг? Теперь их задача - добраться до своих, не дать погибнуть будущему герою войны и, конечно, вернуться обратно в свое время...

http://www.kinopoisk.ru/rating/630065.gif

http://static.rutracker.org/smiles/icon_arrow.gif
Все раздачи сериала

Сэмпл: http://multi-up.com/697441

Качество: DVB
Формат: MPEG-PS
Видео кодек: MPEG2
Аудио кодек: MP2
Видео: MPEG-2, 720x576, 25 fps, ~5.8 Mbps, 0.56 bit/pixel
Аудио: 48 kHz, MP2, 1.0, ~192 kbps avg

MI


Цитата:


GeneralComplete name : Tuman-2.01.mpgFormat : MPEG-PSFile size : 1.89 GiBDuration : 44mn 18sOverall bit rate mode : VariableOverall bit rate : 6 122 Kbps

VideoID : 224 (0xE0)Format : MPEG VideoFormat version : Version 2Format profile : Main@MainFormat settings, BVOP : YesFormat settings, Matrix : CustomDuration : 44mn 18sBit rate mode : VariableBit rate : 5 808 KbpsMaximum bit rate : 15.0 MbpsWidth : 720 pixelsHeight : 576 pixelsDisplay aspect ratio : 4:3Frame rate : 25.000 fpsStandard : PALColor space : YUVChroma subsampling : 4:2:0Bit depth : 8 bitsScan type : InterlacedScan order : Top Field FirstCompression mode : LossyBits/(Pixel*Frame) : 0.560Stream size : 1.80 GiB (95%)

AudioID : 192 (0xC0)Format : MPEG AudioFormat version : Version 1Format profile : Layer 2Mode extension : Intensity Stereo + MS StereoDuration : 44mn 18sBit rate mode : ConstantBit rate : 192 KbpsChannel(s) : 1 channelSampling rate : 48.0 KHzCompression mode : LossyDelay relative to video : -40msStream size : 60.8 MiB (3%)





Скриншоты
http://i33.fastpic.ru/thumb/2012/0505/59/3b5ef9f47867b64a120c991882121c59.jpeg http://i33.fastpic.ru/thumb/2012/0505/76/98ffd3ba9e2e1d83db77e5c317ff4476.jpeg http://i33.fastpic.ru/thumb/2012/0505/c4/a9cfdb5e2623b19ca7b7e9d56d54aec4.jpeg http://i33.fastpic.ru/thumb/2012/0505/2e/b63a576d8e7601ef99b2cdb92b47982e.jpeg http://i33.fastpic.ru/thumb/2012/0505/8d/b4a0e2877ad057eae21c8cd42971be8d.jpeg http://i33.fastpic.ru/thumb/2012/0505/34/9ad1bf2e6da300f9a9a521c3fa659e34.jpeg http://i33.fastpic.ru/thumb/2012/0505/88/2627198885356e423f637acd8c562788.jpeg http://i33.fastpic.ru/thumb/2012/0505/a8/93e9919a185e09ff7d2e5dd94849e0a8.jpeg http://i33.fastpic.ru/thumb/2012/0505/76/2e21e98dd995675ae8c12af1a0ee1176.jpeg http://i33.fastpic.ru/thumb/2012/0505/5d/ae6eb9ccb888d2db344797169bdf495d.jpeg


Сравнение с раздачей Server8888
Сравнение раздачи Server8888 (слева) и этой (справа):

http://i37.fastpic.ru/thumb/2012/0505/f4/5b95ab4f7d695aa16d0593d9b98985f4.jpeg http://i37.fastpic.ru/thumb/2012/0505/4d/847554626f22f921d7519c2ce50dc54d.jpeg
http://i37.fastpic.ru/thumb/2012/0505/dc/e48e73b572814a0bb07b38c70e335fdc.jpeg http://i37.fastpic.ru/thumb/2012/0505/7f/eb9d2b5422b86e263208570f3c9c687f.jpeg
http://i37.fastpic.ru/thumb/2012/0505/92/d3f6054aaf9598b1bd58d64e65a42192.jpeg http://i37.fastpic.ru/thumb/2012/0505/17/ec8ff38e25ab0b5f1ef911ac2e775817.jpeg
http://i37.fastpic.ru/thumb/2012/0505/e0/897b62fca475383bc11005428d86f3e0.jpeg http://i37.fastpic.ru/thumb/2012/0505/f6/2006433b740a1b7e8cb1564aa40f39f6.jpeg
Похожие файлы
Загрузка / Обновление
КатегорияСериалы RSS лента
Просмотров141 раз (a)
Взят1 раз (a)
Файлы4
Размер7.58 GB (8,139,763,712 байт)
Добавлен
РаздалViKa  (Искать торренты)
Участники
Участники - Загрузка / Обновление
Просматривают Просматривают Загрузка...

-†- ¿? -†-
« Предыдущая - † Страница † - Следующая »

:: Список Комментариев
Нет комментариев.

 Нет комментариев
Вам запрещенно редактировать, создать или удалять комментарии.
shpv© 2007-2014
Страничка сформирована за 0.960 секунд.
Яндекс.Метрика Rambler's Top100