скачать торрент трекер Friends
 
 Главная  •  Торренты  •  Новые релизы  •  Форум  •   •  Персоны кино  •  Правила  •  ЧаВо

Язык интерфейса
Язык интерфейса:


Привет, Гость
[15] из [15]
Введите Логин:
Введите Пароль:
Регистрация
Восстановить Пароль

Линки
АнекдотыБанкоматВсе теги / меткиДополнительные услугиТехподдержка

Главное Меню
 Главная Торренты Релизы за сегодня Персоны кино Запросы / Предложения (3) Правила ЧаВо Проверка BB кодов Топ 10 Архив новостей Прошлые опросы Форматы файлов Группы Последние комментарии Техподдержка

:: Детали раздачи
Торрент раздача является мультитрекерной — учтите, количество раздающих не будет совпадать с количеством участников на сайте (скачивание на клиентской стороне зависит от настроек uTorrent клиент программы, настройки -> Включить DHT, Обмен пирами и Поиск лок-х пиров).
Если висит надпись, пиры по нулям - не бойтесь, возможность скачать повторно торрент раздачу - есть. Попробуйте, в случае отказа - прокоментируйте или нажмите на "Позвать скачавших".

Бомба для невесты / Сезон: 1 Серии: 1-4 из 4 (Александр Павловский)

Скачать
Магнет
ПомощьКак скачать раздачу
Поделиться
Теги / Меткикомедия, мелодрама
Постер
ОписаниеГод выпуска: 2003
Производство: Студия "Открытый театр"
Жанр: комедия, мелодрама
Продолжительность: 00:45:34
Режиссёр: Александр Павловский

В ролях: Владислав Галкин, Дмитрий Харатьян, Елена Гольянова, Юлия Началова, Алексей Кортнев, Юлия Гуль, Антон Кукушкин, Марина Носова, Александр Стефанцов, Анастасия (Ася) Улюшкина, Наталья Худякова, Александр Чернявский (II)

Описание: Модному журналу "Светские хроники" срочно нужна громкая акция для усиления популярности в условиях жёсткой конкуренции. А тут ещё и ведущий репортёр журнала должен срочно уехать. Заменить его согласен случайно заехавший домой журналист-международник. Сердцеед. Он то и придумывает устроить пышное бракосочетание, приуроченное к Женскому дню 8 Марта. Мероприятие поручено провести опытному конферансье с участием любимицы публики - красавицы-певицы. Но праздник помимо безудержного веселья несёт массу сюрпризов. Певица влюблена в журналиста, в певицу влюблён депутат. Редактор журнала тоже влюблена в журналиста, а журналист оказывается влюблённым в одну из невест. Но "шоу должно продолжаться". И вот три пары счастливых молодожёнов торжественно привозят в загородный особняк для проведения медового уикенда. Однако не успели за ними закрыться двери свадебных номеров, как новый "сюрприз" свалился на героев. Неизвестный злоумышленник сообщает, что особняк заминирован. Среди невест находится его возлюбленная, и, если девушка не одумается и не вернётся к нему, то утром здание взлетит на воздух. Проблема усложняется тем, что имени своей возлюбленной он не назвал. И вот молодожёны, конферансье и его дочь, оказавшиеся запертыми в злополучном доме, вынуждены искать пути своего спасения. Каких только чудес предприимчивости и находчивости не проявляли заложники, какие только тайны не вскрывались в эту ночь, и каким только испытаниям не подвергалась их любовь за эти несколько часов. Развязка же этого драматического сюжета оказалась неожиданной для всех. Скажем только, что всё закончилось даже лучше, чем вы могли бы себе предположить. Каждого в финале ожидали счастье и удача. Да разве может быть иначе в кинокомедии о любви.

http://www.kinopoisk.ru/rating/469646.gif

Добавил: 4-ю серию, перезалейте торрент-файл

Все раздачи сериала: http://rutracker.org/forum/search.php?f=9&nm=%C...5%E2%E5%F1%F2%FB
Сэмпл: http://multi-up.com/755995

Качество: DVB
Формат: MPEG-PS
Видео кодек: MPEG2
Аудио кодек: MP2
Видео: MPEG-2 Video, 544x576 (4:3), VBR, 25 fps, 2650 Kbps, 0.34 bit/pixel
Аудио: 48 kHz, MPEG Audio, 2 ch, 192 kbps

MI
General
Complete name : C:\01. Бомба для невесты.mpg
Format : MPEG-PS
File size : 930 MiB
Duration : 45mn 8s
Overall bit rate mode : Variable
Overall bit rate : 2 880 Kbps

Video
ID : 224 (0xE0)
Format : MPEG Video
Format version : Version 2
Format profile : Main@Main
Format settings, BVOP : Yes
Format settings, Matrix : Custom
Duration : 45mn 8s
Bit rate mode : Variable
Bit rate : 2 650 Kbps
Width : 544 pixels
Height : 576 pixels
Display aspect ratio : 4:3
Frame rate : 25.000 fps
Color space : YUV
Chroma subsampling : 4:2:0
Bit depth : 8 bits
Scan type : Interlaced
Scan order : Top Field First
Compression mode : Lossy
Bits/(Pixel*Frame) : 0.338
Stream size : 849 MiB (91%)

Audio
ID : 192 (0xC0)
Format : MPEG Audio
Format version : Version 1
Format profile : Layer 2
Duration : 45mn 8s
Bit rate mode : Constant
Bit rate : 192 Kbps
Channel(s) : 2 channels
Sampling rate : 48.0 KHz
Compression mode : Lossy
Stream size : 62.0 MiB (7%)


Внимание! Раздача ведётся путём добавления новых серий
Внимание! Раздача ведётся путём добавления новых серий; при каждом добавлении создаётся новый торрент. Чтобы начать докачку новой серии, пользователям необходимо сделать следующее:
(1) остановить скачивание,
(2) удалить старый торрент у себя из клиента (старые серии удалять не надо),
(3) скачать новый торрент и запустить его у себя в клиенте вместо старого, при этом указать клиенту путь в старую папку куда и должно происходить скачивание новых серий.
Ваш клиент при этом должен произвести хеширование (проверку) старой папки (если не производит сам - помогите ему сделать это), и будет докачивать только те серии которых у вас ещё нет. Старые серии при этом не удаляются, а продолжают раздаваться!
Eсли вы уже удалили старые серии, то предотвратить повторную закачку старых серий можно, отжав галочку в соответствующих местах при запуске нового торрента. По возможности, желательно не удалять старые серии как можно дольше чтобы релизёр не столько продолжал раздавать старые серии, а смог сконцентрироваться на новых.


Скриншоты
[img]http://i43.fastpic.ru/thumb/2012/0904/55/57a46e5d963e2e57fc04eea23dac8e55.jpeg[/img][img]http://i42.fastpic.ru/thumb/2012/0904/bb/0682f2187ee9a57f157a369439edeebb.jpeg" alt="http://i40.fastpic.ru/thumb/2012/0904/78/e78a6e8c0f0488d283276f974bfd2878.jpeg[/img][img]http://i43.fastpic.ru/thumb/2012/0904/55/57a46e5d963e2e57fc04eea23dac8e55.jpeg[/img][img]http://i42.fastpic.ru/thumb/2012/0904/bb/0682f2187ee9a57f157a369439edeebb.jpeg" />
Похожие файлы
Загрузка / Обновление
КатегорияСериалы RSS лента
Просмотров63 раз (a)
Взят0 раз (a)
Файлы4
Размер3.63 GB (3,902,146,560 байт)
Добавлен
РаздалViKa  (Искать торренты)
Участники
Участники - Загрузка / Обновление
Просматривают Просматривают Загрузка...

-†- ¿? -†-
« Предыдущая - † Страница † - Следующая »

:: Список Комментариев
Нет комментариев.

 Нет комментариев
Вам запрещенно редактировать, создать или удалять комментарии.
shpv© 2007-2014
Страничка сформирована за 0.262 секунд.
Яндекс.Метрика Rambler's Top100