скачать торрент трекер Friends
 
 Главная  •  Торренты  •  Новые релизы  •  Форум  •   •  Персоны кино  •  Правила  •  ЧаВо

Язык интерфейса
Язык интерфейса:


Привет, Гость
[15] из [15]
Введите Логин:
Введите Пароль:
Регистрация
Восстановить Пароль

Линки
АнекдотыБанкоматВсе теги / меткиДополнительные услугиТехподдержка

Главное Меню
 Главная Торренты Релизы за сегодня Персоны кино Запросы / Предложения (3) Правила ЧаВо Проверка BB кодов Топ 10 Архив новостей Прошлые опросы Форматы файлов Группы Последние комментарии Техподдержка

:: Детали раздачи
Торрент раздача является мультитрекерной — учтите, количество раздающих не будет совпадать с количеством участников на сайте (скачивание на клиентской стороне зависит от настроек uTorrent клиент программы, настройки -> Включить DHT, Обмен пирами и Поиск лок-х пиров).
Если висит надпись, пиры по нулям - не бойтесь, возможность скачать повторно торрент раздачу - есть. Попробуйте, в случае отказа - прокоментируйте или нажмите на "Позвать скачавших".

Бедные родственники / Серии: 1-16 из 16 (Роман Просвирнин)

Скачать
Магнет
ПомощьКак скачать раздачу
Поделиться
Теги / Меткимелодрама
Постер
ОписаниеГод выпуска: 2012
Производство: Кинокомпания "Русское"
Жанр: мелодрама
Продолжительность: ~ 0:43:00 серия
Субтитры: отсутствуют

Режиссёр: Роман Просвирнин

В ролях: Анастасия Балякина, Василий Лановой, Ирина Купченко, Алексей Зубков, Дарья Грачёва, Агриппина Стеклова, Иван Добронравов, Сергей Барковский, Анастасия Веденская, Денис Васильев, Роман Курцын, Татьяна Кузнецова, Денис Жариков, Маша Астахова, Елена Дубровская, Ирина Горбачева, Илья Коробко, Иван Оранский, Валерий Баринов, Игорь Ясулович, Юлия Яблонская, Павел Вишняков, Борис Смолкин, Анатолий Кощеев, Сергей Серов, Виктор Бабич, Юрий Бондаренко, Георгий Тимошин, Галина Стаханова, Алёна Галлиардт, Андрей Селиванов, Андрей Заводюк, Наталья Смолина, Александр Пашков, Алексей Лапин, Ангелина Добророднова, Таисия Шипилова, Алексей Ярмилко, Лариса Пылаева, Михаил Богдасаров.

Описание: Действие фильма начинается в середине 50-х годов прошлого века и охватывает более полутора десятилетий. В жизни маленькой Симы происходит трагедия – ее родители объявлены "врагами народа" и репрессированы, а девочка вынуждена уехать из Москвы в деревню. 1954 год. Симе исполнилось семнадцать лет. Она возвращается в столицу, чтобы начать учебу в медицинском техникуме. Однако девушка обнаруживает, что ее комнату отдали постороннему человеку – теперь там проживает пожилая стенографистка Кира Петровна. Познакомившись с Симой, она дает ей приют на время экзаменов. Неожиданно Сима встречает и первую любовь – девушка теряет голову от племянника Киры Петровны, обаятельного абитуриента театрального института. Каково же изумление героини, когда возлюбленный бесследно исчезает, ограбив квартиру своей тети. Еще больший ужас ждет девушку, когда она понимает, что беременна..

Релиз: http://i2.imageban.ru/out/2012/11/20/e578a357671f0643cf4662832e92df53.png

Все раздачи сериала / Сэмпл



Качество: DVB (Express MD1 at 80.0°E)
Формат: MPEG-PS
Видео кодек: MPEG2
Аудио кодек: MP2
Видео: MPEG 2, 720x576 (4:3), 25.000 fps, 5350 Kbps (0.516 bit/pixel)
Аудио: MP2, 48.0 KHz, 2 ch, 256 Kbps, CBR

MediaInfo


ОбщееПолное имя : L:\Раздачи\Бедные родственники\Бедные родственники.01.mpgФормат : MPEG-PSРазмер файла : 1,69 ГбайтПродолжительность : 42 м.Режим общего битрейта : ПеременныйОбщий поток : 5720 Кбит/секБиблиотека кодирования : (c) 1998-2012 Womble Multimedia, Inc. / MPEG Video Wizard DVD 5.0.1.100 (03/2011) / Sep 7 2012

ВидеоИдентификатор : 224 (0xE0)Формат : MPEG VideoВерсия формата : Version 2Профиль формата : Main@MainПараметр BVOP формата : ДаПараметр матрицы формата : ВыборочнаяПараметр GOP формата : M=3, N=15Продолжительность : 42 м.Вид битрейта : ПеременныйБитрейт : 5350 Кбит/секМаксимальный битрейт : 15,0 Мбит/секШирина : 720 пикселейВысота : 576 пикселейСоотношение сторон : 4:3Частота кадров : 25,000 кадров/секСтандарт вещания : PALЦветовое пространство : YUVСубдискретизация насыщенности : 4:2:0Битовая глубина : 8 битТип развёртки : ЧересстрочнаяПорядок развёртки : Верхнее поле первоеМетод сжатия : С потерямиБит/(Пиксели*Кадры) : 0.516Размер потока : 1,58 Гбайт (94%)Выравнивание : (c) 1998-2012 Womble Multimedia, Inc. / MPEG Video Wizard DVD 5.0.1.100 (03/2011) / Sep 7 2012Заголовок : (c) 1998-2012 Womble Multimedia, Inc. / MPEG Video Wizard DVD 5.0.1.100 (03/2011) / Sep 7 2012Библиотека кодирования : (c) 1998-2012 Womble Multimedia, Inc. / MPEG Video Wizard DVD 5.0.1.100 (03/2011) / Sep 7 2012

АудиоИдентификатор : 192 (0xC0)Формат : MPEG AudioВерсия формата : Version 1Профиль формата : Layer 2Продолжительность : 42 м.Вид битрейта : ПостоянныйБитрейт : 256 Кбит/секКаналы : 2 каналаЧастота : 48,0 КГцМетод сжатия : С потерямиЗадержка видео : -40 мс.Размер потока : 77,3 Мбайт (4%)

Меню



Скриншоты
http://i3.imageban.ru/out/2012/12/15/904f22571934f4007955037895407f99.png
http://i5.imageban.ru/out/2012/12/15/e14b1ebb29fddff8ec1bee0bef94a02a.png
http://i1.imageban.ru/out/2012/12/15/d8f300fd9fc4e5641d579f38de889bd3.png
http://i1.imageban.ru/out/2012/12/15/43482c8ae44d00f2bb348bf0ce0b5f46.png


http://i1.imageban.ru/out/2012/12/15/60913b0ec5c6c07765a9ceeb2b9fb029.png
http://i3.imageban.ru/out/2012/12/15/05cc5f8896131204057d9d53c81c81a3.png
http://i5.imageban.ru/out/2012/12/15/4533b984c5ba51daa5bee6647ae64862.png
http://i3.imageban.ru/out/2012/12/15/4de73ed0ae6290f569f5313fd2d0cd38.png



Раздача ведется путем добавления новых серий
Внимание! Раздача ведётся путём добавления новых серий; при каждом добавлении создётся новый торрент. Чтобы начать докачку новой серии, пользователям необходимо сделать следующее:
(1) остановить скачивание,
(2) удалить старый торрент у себя из клиента (старые серии удалять не надо),
(3) скачать новый торрент и запустить его у себя в клиенте вместо старого, при этом указать клиенту путь в старую папку куда и должно происходить скачивание новых серий.
Ваш клиент при этом должен произвести хеширование (проверку) старой папки (если не производит сам - помогите ему сделать это), и будет докачивать только те серии которых у вас ещё нет. Старые серии при этом не удаляются, а продолжают раздаваться!
Eсли вы уже удалили старые серии, то предотвратить повторную закачку старых серий можно, отжав галочку в соответствующих местах при запуске нового торрента.
Скриншоты
Похожие файлы
Загрузка / Обновление
КатегорияСериалы RSS лента
Просмотров114 раз (a)
Взят2 раз (a)
Файлы16
Размер27.98 GB (30,046,474,240 байт)
Добавлен
РаздалViKa  (Искать торренты)
Участники
Участники - Загрузка / Обновление
Просматривают Просматривают Загрузка...

-†- ¿? -†-
« Предыдущая - † Страница † - Следующая »

:: Список Комментариев
Нет комментариев.

 Нет комментариев
Вам запрещенно редактировать, создать или удалять комментарии.
shpv© 2007-2014
Страничка сформирована за 0.053 секунд.
Яндекс.Метрика Rambler's Top100