скачать торрент трекер Friends
 
 Главная  •  Торренты  •  Новые релизы  •  Форум  •   •  Персоны кино  •  Правила  •  ЧаВо

Язык интерфейса
Язык интерфейса:


Привет, Гость
[15] из [15]
Введите Логин:
Введите Пароль:
Регистрация
Восстановить Пароль

Линки
АнекдотыБанкоматВсе теги / меткиДополнительные услугиТехподдержка

Главное Меню
 Главная Торренты Релизы за сегодня Персоны кино Запросы / Предложения (3) Правила ЧаВо Проверка BB кодов Топ 10 Архив новостей Прошлые опросы Форматы файлов Группы Последние комментарии Техподдержка

:: Детали раздачи
Торрент раздача является мультитрекерной — учтите, количество раздающих не будет совпадать с количеством участников на сайте (скачивание на клиентской стороне зависит от настроек uTorrent клиент программы, настройки -> Включить DHT, Обмен пирами и Поиск лок-х пиров).
Если висит надпись, пиры по нулям - не бойтесь, возможность скачать повторно торрент раздачу - есть. Попробуйте, в случае отказа - прокоментируйте или нажмите на "Позвать скачавших".

Однолюбы / Серии: 1-12 из 12 (Александр (Алеко) Цабадзе)

Скачать
Магнет
ПомощьКак скачать раздачу
Поделиться
Теги / Меткисемейная сага
Описаниеhttp://i39.fastpic.ru/big/2012/1009/41/0e0ee0edd45d03eccd4a5a1454097741.png[/img][img]http://i39.fastpic.ru/big/2012/1009/95/6d65194f3585fdbd49cc
0c6c2e98a395.pngГод выпуска: 2012
Производство: Кинокомпания «Щука»
Жанр: Семейная сага
Режиссёр: Александр (Алеко) Цабадзе

В ролях: Иван Стебунов, Александр Робак, Татьяна Черкасова, Фёдор Лавров, Александра Урсуляк, Полина Стрельникова, Максим Лагашкин, Михаил Евланов, Галина Петрова, Александр Новин, Николай Качура, Анастасия Боброва, Павел Южаков-Харланчук, Влад Денякин, Полина Стефанович, Иван Щетко

Описание: Если бы кто-то в 1980 году сказал Яхонтовым и Удальцовым, что очень скоро их семьи свяжет сначала непримиримая вражда, а потом кровное родство, замешанное, правда, все на той же ненависти, они бы не поверили. К тому же той осенью, Яхонтовым и Удальцовым было не до глупых прогнозов на будущее. И у тех, и у других было полно счастливых хлопот - счастливые и взволнованные папаши забирали из роддома своих жен, крепко прижимающих к груди крикливые свертки. У Яхонтовых сверток был с розовым бантом – и дочку решено было назвать Машенькой, а голубое одеяльце, в котором сопел щекастый новорожденный малыш, на весь мир сигнализировало о том, что в семье Удальцовых появился сын – Ванечка. Маша и Ванечка много спали, с удовольствием ели, орали и беспрестанно пачкали пеленки, не зная, что невидимые нити судьбы уже прочно связали их жизни.
Их жизни – и жизни их пока еще не связанных друг с другом семей…
Продолжительность: 00:50:00Все раздачи сериалаДополнительная информация: Это моя авторская запись с телеканала Первый: Всемирная сеть.

Качество: DVB
Формат: MPEG-PS
Видео кодек: MPEG2
Аудио кодек: MPEG1
Видео: MPEG2 Video, 720x576 (16:9), 25.00fps, 4 200 Kbps, 0.404 bit/pixel
Аудио: MPEG Audio, 48000Hz, 2 ch, 192 Кбит/секDVB by Drek & http://i39.fastpic.ru/big/2012/0619/58/29fe6b704b5fd667028d754da0ff8b58.png

Внимание. Раздача ведётся путём добавления новых серий
Внимание! Раздача ведётся путём добавления новых серий; при каждом добавлении создётся новый торрент. Чтобы начать докачку новой серии, пользователям необходимо сделать следующее:
(1) остановить скачивание,
(2) удалить старый торрент у себя из клиента (старые серии удалять не надо),
(3) скачать новый торрент и запустить его у себя в клиенте вместо старого, при этом указать клиенту путь в старую папку куда и должно происходить скачивание новых серий.
Ваш клиент при этом должен произвести хеширование (проверку) старой папки (если не производит сам - помогите ему сделать это), и будет докачивать только те серии которых у вас ещё нет. Старые серии при этом не удаляются, а продолжают раздаваться!
Eсли вы уже удалили старые серии, то предотвратить повторную закачку старых серий можно, отжав галочку в соответствующих местах при запуске нового торрента. По возможности, желательно не удалять старые серии как можно дольше чтобы релизёр не столько продолжал раздавать старые серии, а смог сконцентрироваться на новых


Сэмпл
http://multi-up.com/773045


MI
Общее
Полное имя : D:\Торренты\Однолюбы_DVB_by_Drek\Однолюбы_01_DVB_by_Drek.mpg
Формат : MPEG-PS
Размер файла : 1,56 Гбайт
Продолжительность : 50 м.
Режим общего битрейта : Переменный
Общий поток : 4435 Кбит/сек

Видео
Идентификатор : 224 (0xE0)
Формат : MPEG Video
Версия формата : Version 2
Профиль формата : Main@Main
Параметр BVOP формата : Да
Параметр матрицы формата : Выборочная
Продолжительность : 50 м.
Вид битрейта : Переменный
Битрейт : 4155 Кбит/сек
Максимальный битрейт : 15,0 Мбит/сек
Ширина : 720 пикселей
Высота : 576 пикселей
Соотношение сторон : 16:9
Частота кадров : 25,000 кадров/сек
Стандарт вещания : PAL
Цветовое пространство : YUV
Субдискретизация насыщенности : 4:2:0
Битовая глубина : 8 бит
Тип развёртки : Чересстрочная
Порядок развёртки : Верхнее поле первое
Метод сжатия : С потерями
Бит/(Пиксели*Кадры) : 0.401
Размер потока : 1,46 Гбайт (94%)

Аудио
Идентификатор : 192 (0xC0)
Формат : MPEG Audio
Версия формата : Version 1
Профиль формата : Layer 2
Продолжительность : 50 м.
Вид битрейта : Постоянный
Битрейт : 192 Кбит/сек
Каналы : 2 канала
Частота : 48,0 КГц
Метод сжатия : С потерями
Размер потока : 69,2 Мбайт (4%)

[img]http://i25.fastpic.ru/thumb/2012/1010/bf/9ecfd87ec48e73dfb2c7a21ca42116bf.jpeg[/img][img]http://i25.fastpic.ru/thumb/2012/1010/1c/e4b3b152d176357aec223c9b9a24b91c.jpeg[/img][img]http://i25.fastpic.ru/thumb/2012/1010/f5/9df05d36e4e942663c11f000faec51f5.jpeg[/img][img]http://i25.fastpic.ru/thumb/2012/1010/ac/d5a11c790c7c2f88fccb81cf2e8161ac.jpeg[/img][img]http://i25.fastpic.ru/thumb/2012/1010/94/2112676071d9c5b1939e4a21ff2da194.jpeg[/img][img]http://i25.fastpic.ru/thumb/2012/1010/aa/28c90bed636d19007d24004413e0b6aa.jpeg[/img][img]http://i48.fastpic.ru/big/2013/0611/7 3/61d6fe19291118c366d9326a80105573.png" alt="http://i19.fastpic.ru/big/2011/0410/2c/f6f337b7a431c20dd4618c43f90f292c.png[/img][img]http://i25.fastpic.ru/thumb/2012/1010/bf/9ecfd87ec48e73dfb2c7a21ca42116bf.jpeg[/img][img]http://i25.fastpic.ru/thumb/2012/1010/1c/e4b3b152d176357aec223c9b9a24b91c.jpeg[/img][img]http://i25.fastpic.ru/thumb/2012/1010/f5/9df05d36e4e942663c11f000faec51f5.jpeg[/img][img]http://i25.fastpic.ru/thumb/2012/1010/ac/d5a11c790c7c2f88fccb81cf2e8161ac.jpeg[/img][img]http://i25.fastpic.ru/thumb/2012/1010/94/2112676071d9c5b1939e4a21ff2da194.jpeg[/img][img]http://i25.fastpic.ru/thumb/2012/1010/aa/28c90bed636d19007d24004413e0b6aa.jpeg[/img][img]http://i48.fastpic.ru/big/2013/0611/7 3/61d6fe19291118c366d9326a80105573.png" /> http://static.rutracker.org/ranks/rg_torrents_logo.png
Похожие файлы
Загрузка / Обновление
КатегорияСериалы RSS лента
Просмотров241 раз (a)
Взят3 раз (a)
Файлы12
Размер19.31 GB (20,736,239,616 байт)
Добавлен
РаздалViKa  (Искать торренты)
Участники
Участники - Загрузка / Обновление
Просматривают Просматривают Загрузка...

-†- ¿? -†-
« Предыдущая - † Страница † - Следующая »

:: Список Комментариев
Нет комментариев.

 Нет комментариев
Вам запрещенно редактировать, создать или удалять комментарии.
shpv© 2007-2014
Страничка сформирована за 0.281 секунд.
Яндекс.Метрика Rambler's Top100