скачать торрент трекер Friends
 
 Главная  •  Торренты  •  Новые релизы  •  Форум  •   •  Персоны кино  •  Правила  •  ЧаВо

Язык интерфейса
Язык интерфейса:


Привет, Гость
[15] из [15]
Введите Логин:
Введите Пароль:
Регистрация
Восстановить Пароль

Линки
АнекдотыБанкоматВсе теги / меткиДополнительные услугиТехподдержка

Главное Меню
 Главная Торренты Релизы за сегодня Персоны кино Запросы / Предложения (3) Правила ЧаВо Проверка BB кодов Топ 10 Архив новостей Прошлые опросы Форматы файлов Группы Последние комментарии Техподдержка

:: Детали раздачи
Торрент раздача является мультитрекерной — учтите, количество раздающих не будет совпадать с количеством участников на сайте (скачивание на клиентской стороне зависит от настроек uTorrent клиент программы, настройки -> Включить DHT, Обмен пирами и Поиск лок-х пиров).
Если висит надпись, пиры по нулям - не бойтесь, возможность скачать повторно торрент раздачу - есть. Попробуйте, в случае отказа - прокоментируйте или нажмите на "Позвать скачавших".

Московская сага (Дмитрий Барщевский) (серии 1-22 из 22)

Скачать
Магнет
ПомощьКак скачать раздачу
Поделиться
Теги / Меткикинороман, драма
Описаниеhttp://i25.fastpic.ru/big/2011/0719/84/6d43cd6111c734fd7e6b9ecca9f51c84.jpgСтрана: Россия
Студия: кинокомпания "Риск" (Risk Film and Video Studio)
Жанр: кинороман, драма
Год выпуска: 2004
Продолжительность: 18:17:31

Режиссер: Дмитрий Барщевский

В ролях: Юрий Соломин, Инна Чурикова, Александр Балуев, Екатерина Никитина, Ольга Будина, Марианна Шульц, Алексей Зуев, Илья Носков, Анна Снаткина, Андрей Смирнов, Марина Яковлева, Игорь Скляр, Алексей Кортнев, Регимантас Адомайтис, Владимир Миронов, Игорь Бочкин, Дмитрий Харатьян, Сергей Безруков, Дмитрий Ульянов, Александр Резалин, Андрей Ильин, Тамара Кушелевская, Ирина Бразговка, Ираклий Мачарашвили, Виктория Толстоганова, Кристина Орбакайте, Александр Хованский, Ирина Безрукова, Татьяна Самойлова, Марк Рудинштейн, Вячеслав Шалевич, Ирина Купченко, Михаил Ефремов, Алексей Макаров, Владимир Долинский, Елена Касьянова, Валерий Закутский, Владимир Соколов, Ксения Рябинкина, Владимир Юматов (от автора), восточноевропейская овчарка Маклай

Описание: Москва, 1925 год. Профессор Градов, известный московский хирург, его жена Мэри, их дети - Нина, Никита, Кирилл, многолетние друзья дома, родня московская и тифлисская (так тогда назывался Тбилиси), те, кому еще предстоит войти в эту семью и историю, - все молоды и полны надежд. Они празднуют 25-летие своего родового дома в Серебряном бору. Пройдет тридцать лет. Многим ли надеждам суждено сбыться?..

Доп. информация: По мотивам одноименного романа-трилогии Василия Аксенова и экранизации Павла Финна.
Сценарий: Наталья Виолина
Оператор: Красимир Костов
Художники: Сергей Бржестовский, Владимир Ермаков, Алена Табакова
Композитор: Александр Журбин
Ограничения на просмотр: детям до 12 лет просмотр фильма разрешен в сопровождении родителей

http://i47.fastpic.ru/big/2012/1107/8e/2cac0f85a7c972fc2a8a67b163ef9f8e.png http://kinoafisha.ru/ratingi0476102.png http://www.kinopoisk.ru/rating/231081.gif

На последнем, шестом диске вместе с двумя заключительными сериями представлен фильм "Последний дубль" с рассказом о съемках сериала.

Бонусы: фильм "Последний дубль" (01:04:35)

Меню: есть, статичное, озвученное

ВСЕ РАЗДАЧИ СЕРИАЛА

Тип релиза: 6хDVD9 (7.55 Gb+7.51 Gb+7.63 Gb+7.42 Gb+7.37 Gb+7.38 Gb)
Контейнер: DVD Video

Видео: PAL 16:9 (720x576), 1.77:1 Auto Pan&Scan (анаморф ), 25 fps, VBR 6000 kbps
Аудио: Russian (Dolby AC3, 2 ch, 192 kbps, 48 kHz)
Субтитры: нет

Отчет DVDInfo
Title: DISK_06
Size: 7.38 Gb ( 7 734 804 KBytes ) - DVD-9
Enabled regions: 1, 2, 3, 4, 5, 6

VTS_01 :
Play Length: 00:00:13
Video: PAL 4:3 (720x576) VBR
Audio:
Russian (Dolby AC3, 2 ch)

VTS_02 :
Play Length: 00:42:36
Video: PAL 16:9 (720x576) VBR, Auto Pan&Scan
Audio:
Russian (Dolby AC3, 2 ch)

VTS_03 :
Play Length: 00:38:14
Video: PAL 16:9 (720x576) VBR, Auto Pan&Scan
Audio:
Russian (Dolby AC3, 2 ch)

VTS_04 :
Play Length: 01:04:35+00:57:31
Video: PAL 4:3 (720x576) VBR
Audio:
Russian (Dolby AC3, 2 ch)

Menu Video:
PAL 16:9 (720x576) VBR
Auto Pan&Scan, Auto Letterboxed
Menu Subtitles:
Not specified
Menu English Language Unit :
Root Menu


Отчет MediaInfo
Полное имя : Saga\VIDEO_TS\VTS_02_1.VOB
Формат : MPEG-PS
Размер файла : 1024 Мбайт
Продолжительность : 22 м.
Общий поток : 6292 Кбит/сек

Видео
Идентификатор : 224 (0xE0)
Формат : MPEG Video
Версия формата : Version 2
Профиль формата : Main@Main
Параметр BVOP формата : Да
Параметр матрицы формата : Выборочная
Продолжительность : 22 м.
Вид битрейта : Переменный
Битрейт : 5975 Кбит/сек
Максимальный битрейт : 9400 Кбит/сек
Ширина : 720 пикселей
Высота : 576 пикселей
Соотношение сторон : 16:9
Частота кадров : 25,000 кадров/сек
Стандарт вещания : PAL
Цветовое пространство : YUV
Субдискретизация насыщенности : 4:2:0
Битовая глубина : 8 бит
Тип развёртки : Чересстрочная
Порядок развёртки : Нижнее поле первое
Метод сжатия : С потерями
Бит/(Пиксели*Кадры) : 0.576
Размер потока : 972 Мбайт (95%)

Аудио
Идентификатор : 189 (0xBD)-128 (0x80)
Формат : AC-3
Формат/Информация : Audio Coding 3
Расширение режима : CM (complete main)
Режим смешивания : DVD-Video
Продолжительность : 22 м.
Вид битрейта : Постоянный
Битрейт : 192 Кбит/сек
Каналы : 2 канала
Расположение каналов : Front: L R
Частота : 48,0 КГц
Битовая глубина : 16 бит
Метод сжатия : С потерями
Размер потока : 31,2 Мбайт (3%)

Полное имя : Poslednij dubl\VIDEO_TS\VTS_04_1.VOB
Формат : MPEG-PS
Размер файла : 1024 Мбайт
Продолжительность : 16 м.
Общий поток : 8778 Кбит/сек

Видео
Идентификатор : 224 (0xE0)
Формат : MPEG Video
Версия формата : Version 2
Профиль формата : Main@Main
Параметр BVOP формата : Да
Параметр матрицы формата : Выборочная
Продолжительность : 16 м.
Вид битрейта : Переменный
Битрейт : 8411 Кбит/сек
Максимальный битрейт : 9402 Кбит/сек
Ширина : 720 пикселей
Высота : 576 пикселей
Соотношение сторон : 4:3
Частота кадров : 25,000 кадров/сек
Стандарт вещания : PAL
Цветовое пространство : YUV
Субдискретизация насыщенности : 4:2:0
Битовая глубина : 8 бит
Тип развёртки : Чересстрочная
Порядок развёртки : Верхнее поле первое
Метод сжатия : С потерями
Бит/(Пиксели*Кадры) : 0.811
Размер потока : 981 Мбайт (96%)

Аудио
Идентификатор : 189 (0xBD)-128 (0x80)
Формат : AC-3
Формат/Информация : Audio Coding 3
Расширение режима : CM (complete main)
Режим смешивания : DVD-Video
Продолжительность : 16 м.
Вид битрейта : Постоянный
Битрейт : 192 Кбит/сек
Каналы : 2 канала
Расположение каналов : Front: L R
Частота : 48,0 КГц
Битовая глубина : 16 бит
Метод сжатия : С потерями
Размер потока : 22,4 Мбайт (2%)


Сканы обложек и дисков (custom)
http://i26.fastpic.ru/thumb/2011/0719/1c/a211722e19fc79c30ec6f1de6736401c.jpeg http://i26.fastpic.ru/thumb/2011/0719/a6/2c1e18d6b77b85e2c183ad9e03a04ca6.jpeg http://i26.fastpic.ru/thumb/2011/0719/ce/f26029148f754d346aa1345761f19fce.jpeg http://i26.fastpic.ru/thumb/2011/0719/11/f4b005f66a48c79621174532500f9111.jpeg http://i26.fastpic.ru/thumb/2011/0719/64/f776bdadfbf8b1b654afedc6814e2d64.jpeg http://i26.fastpic.ru/thumb/2011/0719/97/975b00aeca9a28a42ade6fd90b555497.jpeg http://i26.fastpic.ru/thumb/2011/0719/67/0b33c984371127167bdf16a8fd302467.jpeg http://i26.fastpic.ru/thumb/2011/0719/cf/d6f90355fe6e95340d7c97f76dff9acf.jpeg http://i26.fastpic.ru/thumb/2011/0719/3b/809f4574294705c57350a593cb78713b.jpeg


Скриншоты меню
http://i26.fastpic.ru/thumb/2011/0719/bc/d59cc65028e8e4d10a2b840a3ff30cbc.jpeg http://i26.fastpic.ru/thumb/2011/0719/0f/53b36035b268b6fbc8ee8d973d40ac0f.jpeg http://i29.fastpic.ru/thumb/2011/1010/8e/afa68d40fee2c31f2aec1d87bf5a4c8e.jpeg http://i29.fastpic.ru/thumb/2011/1010/02/9ea9cb181b7438bd82bd5419ff11fb02.jpeg http://i29.fastpic.ru/thumb/2011/1010/63/1e4b0ca5d9a9ebb8b60a2b11ea717a63.jpeg


Скриншоты доп. материалов
http://i29.fastpic.ru/thumb/2011/1010/ba/20ce064b73a92d6f22456f534da3e6ba.jpeg http://i29.fastpic.ru/thumb/2011/1010/e7/8cb5b03b8a87cb912b38e2a20018bae7.jpeg http://i29.fastpic.ru/thumb/2011/1010/66/4f5f281729bd402c484874de1a2a7e66.jpeg


Скриншот названия
http://i26.fastpic.ru/thumb/2011/0719/43/cc06db320c84ba0dc7cf28d768a33643.jpeg


Скриншоты (без учета анаморфа)
http://i26.fastpic.ru/thumb/2011/0719/3f/1ac87a157ae0c08b0d31e06ec3f9443f.jpeg http://i26.fastpic.ru/thumb/2011/0719/83/bf8385e773bdef5b038378b4ea040a83.jpeg http://i26.fastpic.ru/thumb/2011/0719/14/9b59290e6cad38e8192aaf19cac57814.jpeg http://i26.fastpic.ru/thumb/2011/0719/b4/20840ba9adff7bc7ca05a03ad16cc6b4.jpeg http://i26.fastpic.ru/thumb/2011/0719/4b/3da682fa57002ffd50669c2d7eac6f4b.jpeg
Похожие файлы
Загрузка / Обновление
КатегорияСериалы RSS лента
Просмотров222 раз (a)
Взят6 раз (a)
Файлы160
Размер44.86 GB (48,164,970,496 байт)
Добавлен
РаздалViKa  (Искать торренты)
Участники
Участники - Загрузка / Обновление
Просматривают Просматривают Загрузка...

-†- ¿? -†-
« Предыдущая - † Страница † - Следующая »

:: Список Комментариев
Нет комментариев.

 Нет комментариев
Вам запрещенно редактировать, создать или удалять комментарии.
shpv© 2007-2014
Страничка сформирована за 0.161 секунд.
Яндекс.Метрика Rambler's Top100