скачать торрент трекер Friends
 
 Главная  •  Торренты  •  Новые релизы  •  Форум  •   •  Персоны кино  •  Правила  •  ЧаВо

Язык интерфейса
Язык интерфейса:


Привет, Гость
[15] из [15]
Введите Логин:
Введите Пароль:
Регистрация
Восстановить Пароль

Линки
АнекдотыБанкоматВсе теги / меткиДополнительные услугиТехподдержка

Главное Меню
 Главная Торренты Релизы за сегодня Персоны кино Запросы / Предложения (3) Правила ЧаВо Проверка BB кодов Топ 10 Архив новостей Прошлые опросы Форматы файлов Группы Последние комментарии Техподдержка

:: Детали раздачи

Робинзон / Сезон: 1 Серии: 8 из 8 (Сергей Бобров)

Скачать
Магнет
ПомощьКак скачать раздачу
Поделиться
Теги / Меткидрама
Постер
Описаниеhttp://i31.fastpic.ru/big/2012/0323/f8/f15970db5c7c81ef46d4d7235a4ed3f8.pngСтрана: Россия
Студия: Всемирные Русские Студии
Жанр: драма
Год выпуска: 2010
Премьера (РФ): 19 марта 2012
Продолжительность: 384 мин.
Cубтитры: нет
Режиссер: Сергей Бобров
В ролях: Игорь Петренко, Сергей Перегудов, Денис Никифоров, Агния Дитковските, Светлана Ходченкова, Александр Тютин, Сергей Астахов, Михаил Ефремов, Александр Баширов, Мария Миронова, Игорь Лифанов, Юрий Кузнецов, Жанна Эппле, Иван Суханов, Анвар Халилулаев, Мария Горбань, Кирилл Жандаров, Елена Муравьёва, Антон Семкин, Саят Абаджян, Татьяна Мишина, Владимир Стеклов
Описание: Действие фильма «Робинзон» начинается в 1985 году. В маленьком северном городке живут трое мальчишек, мечтающих о карьере офицеров ВМФ — Сашка Робертсон, Лешка Балунов и Вовка Титов. Подводная лодка К-963, на которой служат их отцы, уходит на секретное задание — в район учений НАТО обнаружить и записать акустический портрет новейшей, практически бесшумной американской подводной лодки. А мальчишки, играя в подводников на заброшенном заводе, попадают в смертельную ловушку.
Спустя годы, когда друзья Сашка, Лешка и Вовка заканчивали школу, военная служба многим уже не казалась столь престижной, ценности менялись, а подлодки ржавели… Вовка уезжает в Москву, становится бизнесменом. Лешка идет в морскую пехоту. И только Сашка остается верен юношеской мечте и связывает свою жизнь с морем — становится подводником.
После страшной аварии на подлодке в 1996 году, оставшись в заблокированном отсеке, в полной тьме, у «бездны на краю» Сашка Робертсон смог выжить, и, несмотря на ультиматум жены — она или флот, остался верен присяге и снова вернулся на службу.

http://www.kinopoisk.ru/rating/474730.gif http://i8.fastpic.ru/big/2010/0729/14/5366b11fc226de284cc03961610da414.png

http://static.rutracker.org/smiles/icon_arrow.gif
Все раздачи сериалаНазвания серий: нет
Источник: DVD9
Тип релиза: DVDRip-AVC
Контейнер: MKV

Видео: 720x576 -> 1024х576 (16:9), 25 fps, Н264 ~ 1506 kbps avg, 0.145 bit/pixel
Аудио: 48 kHz, AC3, 2/0 (L,R) ch, 96 kbps

MediaInfo
Общее
Полное имя : Robinzon.2011\Robinzon.2011.DVDRip-AVC\3.mkv
Формат : Matroska
Версия формата : Version 2
Размер файла : 558 Мбайт
Продолжительность : 48 м.
Общий поток : 1603 Кбит/сек
Дата кодирования : UTC 2012-03-22 15:23:07
Программа кодирования : mkvmerge v5.0.1 ('Es ist Sommer') built on Nov 6 2011 16:23:40
Библиотека кодирования : libebml v1.2.2 + libmatroska v1.3.0

Видео
Идентификатор : 1
Формат : AVC
Формат/Информация : Advanced Video Codec
Профиль формата : High@L4.1
Параметр CABAC формата : Да
Параметр ReFrames формата : 6 кадров
Идентификатор кодека : V_MPEG4/ISO/AVC
Продолжительность : 48 м.
Битрейт : 1506 Кбит/сек
Ширина : 720 пикселей
Высота : 576 пикселей
Соотношение сторон : 16:9
Частота кадров : 25,000 кадров/сек
Стандарт вещания : PAL
Цветовое пространство : YUV
Субдискретизация насыщенности : 4:2:0
Битовая глубина : 8 бит
Тип развёртки : Прогрессивная
Бит/(Пиксели*Кадры) : 0.145
Размер потока : 513 Мбайт (92%)
Библиотека кодирования : x264 core 119 r2106 07efeb4
Настройки программы : cabac=1 / ref=6 / deblock=1:-2:-1 / analyse=0x3:0x113 / me=umh / subme=9 / psy=1 / psy_rd=1.00:0.10 / mixed_ref=1 / me_range=32 / chroma_me=1 / trellis=1 / 8x8dct=1 / cqm=0 / deadzone=21,11 / fast_pskip=1 / chroma_qp_offset=-3 / threads=3 / sliced_threads=0 / nr=0 / decimate=1 / interlaced=0 / bluray_compat=0 / constrained_intra=0 / bframes=6 / b_pyramid=2 / b_adapt=1 / b_bias=0 / direct=3 / weightb=1 / open_gop=0 / weightp=0 / keyint=250 / keyint_min=25 / scenecut=40 / intra_refresh=0 / rc_lookahead=60 / rc=2pass / mbtree=1 / bitrate=1506 / ratetol=1.0 / qcomp=0.60 / qpmin=0 / qpmax=69 / qpstep=4 / cplxblur=20.0 / qblur=0.5 / ip_ratio=1.40 / aq=1:1.00
Default : Да
Forced : Нет

Аудио
Идентификатор : 2
Формат : AC-3
Формат/Информация : Audio Coding 3
Расширение режима : CM (complete main)
Идентификатор кодека : A_AC3
Продолжительность : 48 м.
Вид битрейта : Постоянный
Битрейт : 96,0 Кбит/сек
Каналы : 2 канала
Расположение каналов : Front: L R
Частота : 48,0 КГц
Битовая глубина : 16 бит
Метод сжатия : С потерями
Размер потока : 33,4 Мбайт (6%)
Default : Да
Forced : Нет


Скриншоты
http://i31.fastpic.ru/thumb/2012/0322/1e/9f69db93abffadfd492267073db30c1e.jpeg http://i32.fastpic.ru/thumb/2012/0322/b4/1c0e431e7c763a31eef9ecf429dc38b4.jpeg http://i32.fastpic.ru/thumb/2012/0322/a4/988fb217f34c926f977c94f808a7e8a4.jpeg http://i30.fastpic.ru/thumb/2012/0322/33/ed39b530232d9edd2420679cf8a08c33.jpeg http://i35.fastpic.ru/thumb/2012/0322/7b/a70361599d49235daee2a41e567cfe7b.jpeg http://i35.fastpic.ru/thumb/2012/0322/e3/e45cbd4fab5e26ab03b5a5219be2fee3.jpeg

Раздача от группы:http://static.rutracker.org/ranks/rg_torrents_logo.gif
Похожие файлы
Загрузка / Обновление
КатегорияСериалы RSS лента
Просмотров181 раз (a)
Взят1 раз (a)
Файлы8
Размер4.37 GB (4,688,017,858 байт)
Добавлен
РаздалViKa  (Искать торренты)
Участники
Участники - Загрузка / Обновление
Просматривают Просматривают Загрузка...

-†- ¿? -†-
« Предыдущая - † Страница † - Следующая »

:: Список Комментариев
Нет комментариев.

 Нет комментариев
Вам запрещенно редактировать, создать или удалять комментарии.
shpv© 2007-2014
Страничка сформирована за 0.095 секунд.
Яндекс.Метрика Rambler's Top100