скачать торрент трекер Friends
 
 Главная  •  Торренты  •  Новые релизы  •  Форум  •   •  Персоны кино  •  Правила  •  ЧаВо

Язык интерфейса
Язык интерфейса:


Привет, Гость
[15] из [15]
Введите Логин:
Введите Пароль:
Регистрация
Восстановить Пароль

Линки
АнекдотыБанкоматВсе теги / меткиДополнительные услугиТехподдержка

Главное Меню
 Главная Торренты Релизы за сегодня Персоны кино Запросы / Предложения (3) Правила ЧаВо Проверка BB кодов Топ 10 Архив новостей Прошлые опросы Форматы файлов Группы Последние комментарии Техподдержка

:: Детали раздачи
Торрент раздача является мультитрекерной — учтите, количество раздающих не будет совпадать с количеством участников на сайте (скачивание на клиентской стороне зависит от настроек uTorrent клиент программы, настройки -> Включить DHT, Обмен пирами и Поиск лок-х пиров).
Если висит надпись, пиры по нулям - не бойтесь, возможность скачать повторно торрент раздачу - есть. Попробуйте, в случае отказа - прокоментируйте или нажмите на "Позвать скачавших".

Хранимые судьбой ( Пусть не кончается любовь ) / Серии: 1-8 из 8 (Валентина Пиманова)

Скачать
Магнет
ПомощьКак скачать раздачу
Поделиться
Теги / Меткидрама
Постер
ОписаниеГод выпуска: 2011
Производство: "Кумиры Фильм"
Жанр: Драма
Продолжительность: 00:53:00
Режиссёр: Валентина Пиманова

В ролях: Армен Джигарханян, Ольга Яковлева, Борис Химичев, Татьяна Конюхова, Владимир Ильин, Наталия Дрожжина, Анатолий Равикович, Лилита Озолиня, Виктор Перевалов, Анатолий Адоскин, Людмила Иванова, Тамара Сёмина, Николай Добрынин, Елена Галибина, Анна Банщикова, Кирилл Сафонов, Игорь Верник, Евгения Свиридова, Михаил Гульдан, Дмитрий Ячевский, Александр Кольцов, Алика Котова, Вячеслав Кулаков, Сергей Серов, Иван Джанчатов[b]Группа[/b] http://static.rutracker.org/ranks/rg_torrents_logo.gif желает всем приятного просмотра! Описание: В старой усадьбеДоме ветеранов кино - живут одинокие пожилые актеры, отдавшие свою жизнь служению искусству. Главный врач - пожилой доктор Гришин, пытается сохранить усадьбуархитектурный памятник 18 века, в то время как чиновники "от культуры" под давлением предприимчивого бизнесмена Лаврова мечтают построить на этой земле элитный развлекательный комплекс. Доктор Гришин в неравной борьбе попадает в больницу с инфарктом, а в Дом престарелых актеров приезжает новый молодой главврач Георгий Толлер

Дополнительная информация: Это моя авторская запись с телеканала Первый: Всемирная сеть. Все раздачи сериалаКачество: SATRip
Формат: AVI
Видео кодек: XviD
Аудио кодек: MP3
Видео: 688x384 (1.79:1), 25 fps, XviD build 64 ~1340 kbps avg, 0.20 bit/pixel
Аудио: 48 kHz, MPEG Layer 3, 2 ch, ~128.00 kbps avgРелиз:http://s60.radikal.ru/i169/1004/62/c4df657129e0.gif & http://i35.fastpic.ru/big/2012/0503/d2/e92dd6a5459971b9bfb28da90ed258d2.png

Внимание. Раздача ведётся путём добавления новых серий
Внимание! Раздача ведётся путём добавления новых серий; при каждом добавлении создётся новый торрент. Чтобы начать докачку новой серии, пользователям необходимо сделать следующее:
(1) остановить скачивание,
(2) удалить старый торрент у себя из клиента (старые серии удалять не надо),
(3) скачать новый торрент и запустить его у себя в клиенте вместо старого, при этом указать клиенту путь в старую папку куда и должно происходить скачивание новых серий.
Ваш клиент при этом должен произвести хеширование (проверку) старой папки (если не производит сам - помогите ему сделать это), и будет докачивать только те серии которых у вас ещё нет. Старые серии при этом не удаляются, а продолжают раздаваться!
Eсли вы уже удалили старые серии, то предотвратить повторную закачку старых серий можно, отжав галочку в соответсвующих местах при запуске нового торрента. По возможности, желательно не удалять старые серии как можно дольше чтобы релизёр не столько продолжал раздавать старые серии, а смог сконцентрироваться на новых


Сэмпл
http://multi-up.com/755796


MI
Общее
Полное имя : C:\Documents and Settings\Администратор\Рабочий стол\Хранимые судьбой_01_SatRip_by_Drek.avi
Формат : AVI
Формат/Информация : Audio Video Interleave
Размер файла : 554 Мбайт
Продолжительность : 52 м.
Общий поток : 1479 Кбит/сек
Программа кодирования : VirtualDubMod 1.5.10.3 | www.virtualdub-fr.org || (build 2550/release)
Библиотека кодирования : VirtualDubMod build 2550/release

Видео
Идентификатор : 0
Формат : MPEG-4 Visual
Профиль формата : Advanced Simple@L5
Параметр BVOP формата : 2
Параметр QPel формата : Нет
Параметр GMC формата : Без точки перехода
Параметр матрицы формата : Default (H.263)
Идентификатор кодека : XVID
Идентификатор кодека/Подсказка : XviD
Продолжительность : 52 м.
Битрейт : 1341 Кбит/сек
Ширина : 688 пикселей
Высота : 384 пикселя
Соотношение сторон : 16:9
Частота кадров : 25,000 кадров/сек
Цветовое пространство : YUV
Субдискретизация насыщенности : 4:2:0
Битовая глубина : 8 бит
Тип развёртки : Прогрессивная
Метод сжатия : С потерями
Бит/(Пиксели*Кадры) : 0.203
Размер потока : 503 Мбайт (91%)
Библиотека кодирования : XviD 64

Аудио
Идентификатор : 1
Формат : MPEG Audio
Версия формата : Version 1
Профиль формата : Layer 3
Режим : Joint stereo
Расширение режима : MS Stereo
Идентификатор кодека : 55
Идентификатор кодека/Подсказка : MP3
Продолжительность : 52 м.
Вид битрейта : Постоянный
Битрейт : 128 Кбит/сек
Каналы : 2 канала
Частота : 48,0 КГц
Метод сжатия : С потерями
Размер потока : 48,0 Мбайт (9%)
Выравнивание : Соединение по промежуткам
Продолжительность промежутка : 40 мс. (1,00 видеокадр)
Время предзагрузки промежутка : 504 мс.
Библиотека кодирования : LAME3.99
Настройки программы : -m j -V 4 -q 2 -lowpass 17 -b 128


Скриншоты
[img]http://i42.fastpic.ru/thumb/2012/0903/c8/0bb1ff6a73b860c0bce7a38ee1b904c8.jpeg[/img][img]http://i42.fastpic.ru/thumb/2012/0903/3e/a2f1b5abc73a92f39e72a72d04b56a3e.jpeg[/img][img]http://i42.fastpic.ru/thumb/2012/0903/d7/5f053e1963a3626f30813a58d4298dd7.jpeg[/img][img]http://i42.fastpic.ru/thumb/2012/0903/c8/bb65436142bb17f6164526908b00e2c8.jpeg" alt="http://i42.fastpic.ru/thumb/2012/0903/5a/b72d3ca41b2644cf15a4540e867a925a.jpeg[/img][img]http://i42.fastpic.ru/thumb/2012/0903/c8/0bb1ff6a73b860c0bce7a38ee1b904c8.jpeg[/img][img]http://i42.fastpic.ru/thumb/2012/0903/3e/a2f1b5abc73a92f39e72a72d04b56a3e.jpeg[/img][img]http://i42.fastpic.ru/thumb/2012/0903/d7/5f053e1963a3626f30813a58d4298dd7.jpeg[/img][img]http://i42.fastpic.ru/thumb/2012/0903/c8/bb65436142bb17f6164526908b00e2c8.jpeg" />

http://i48.fastpic.ru/big/2013/0611/73/61d6fe19291118c366d9326a80105573.png http://static.rutracker.org/ranks/rg_torrents_logo.png
Похожие файлы
Загрузка / Обновление
КатегорияСериалы RSS лента
Просмотров256 раз (a)
Взят3 раз (a)
Файлы8
Размер4.33 GB (4,647,686,144 байт)
ТраффикСкачано: 8.56 GB
Добавлен
РаздалViKa  (Искать торренты)
Участники
Участники - Загрузка / Обновление
Просматривают Просматривают Загрузка...

-†- ¿? -†-
« Предыдущая - † Страница † - Следующая »

:: Список Комментариев
Нет комментариев.

 Нет комментариев
Вам запрещенно редактировать, создать или удалять комментарии.
shpv© 2007-2014
Страничка сформирована за 0.140 секунд.
Яндекс.Метрика Rambler's Top100