скачать торрент трекер Friends
 
 Главная  •  Торренты  •  Новые релизы  •  Форум  •   •  Персоны кино  •  Правила  •  ЧаВо

Язык интерфейса
Язык интерфейса:


Привет, Гость
[15] из [15]
Введите Логин:
Введите Пароль:
Регистрация
Восстановить Пароль

Линки
АнекдотыБанкоматВсе теги / меткиДополнительные услугиТехподдержка

Главное Меню
 Главная Торренты Релизы за сегодня Персоны кино Запросы / Предложения (3) Правила ЧаВо Проверка BB кодов Топ 10 Архив новостей Прошлые опросы Форматы файлов Группы Последние комментарии Техподдержка

:: Детали раздачи
Торрент раздача является мультитрекерной — учтите, количество раздающих не будет совпадать с количеством участников на сайте (скачивание на клиентской стороне зависит от настроек uTorrent клиент программы, настройки -> Включить DHT, Обмен пирами и Поиск лок-х пиров).
Если висит надпись, пиры по нулям - не бойтесь, возможность скачать повторно торрент раздачу - есть. Попробуйте, в случае отказа - прокоментируйте или нажмите на "Позвать скачавших".

По горячим следам / Сезон 01 / Серии: 01-16 из 16 (Илья Максимов)

Скачать
Магнет
ПомощьКак скачать раздачу
Поделиться
Теги / Меткидетектив
Описаниеhttp://i25.fastpic.ru/big/2011/0804/c4/effaf8fcc8a11af2bc81bb43eb23dec4.jpgГод выпуска: 2011
Производство: Мотор фильм студия
Жанр: Детектив
Продолжительность: ~ 00:45:00 / серия
Субтитры: Отсутствуют

Режиссёр: Илья Максимов

В ролях: Мария Порошина, Вячеслав Разбегаев, Дарья Сагалова, Василий Брыков, Александр Тютин, Андрей Балякин, Андрей Кравчук (II), Кристина Савина, Владимир Епифанцев, Дмитрий Титов, Татьяна Лучинина, Наталья Тищенко, Мария Дмитриева, Василий Куприянов, Ольга Мокшина, Дмитрий Скачков, Егор Тимцуник, Олег Захарутин, Евгений Гурьянов, Виталий Евдокимов, Борис Зверев, Сергей Кисса, Анатолий Морозов, Андрей Муравьёв, Алан Плиев, Татьяна Покроева, Сергей Стегайлов, Татьяна Рощина, Юрий Внуков, Александр Макаров, Сергей Проценко, Варвара Репецкая, Ян Романов, Дарья Щербакова, Лия Кетлерова, Владимир Бобров, Виктор Довженко, Максим Дромашко, Елена Куликова, Владимир Лободин, Ирина Никитина, Владимир Прянчин, Екатерина Добровская, Оксана Спиричева, Михаил Гаспарян, Ольга Кузьмина, Карим Пакачаков, Давид Степанян, Виктор Удочкин, Аким Ефремов, Егор Клейменов, Юрий Печенежский, Светлана Чернышева, Наталья Яськова, Александр Числов, Рустам Абдрашитов, Татьяна Павлуцкая, Вячеслав Туник, Александр Шаляпин, Вячеслав Троицкий, Валентин Юнин, Игорь Литовкин (II), Дана Назарова, Елизавета Курбанмагомедова, Елизавета Кюблер, Юрий Котов (II), Евгений Харитонов (III), Кристина Пучкова и другие.

Описание: Главные герои сериала, майор милиции Любовь Суворова (Мария Порошина) и капитан Андрей Шульгин (Вячеслав Разбегаев) - сотрудники специального отдела МВД, занимающегося поиском пропавших людей. Суворовой и Шульгину помогает стажёр Ольга (Дарья Сагалова), прилежная и добросовестная девушка, на которую всегда можно положиться. Вместе они берутся за дела, на которые иные следователи махнули бы рукой, и доводят начатое до конца, чего бы это ни стоило. Герои знают: действовать нужно быстро, ведь отыскать пропавшего человека можно только по горячим следам!

Все раздачи сериала: http://rutracker.org/forum/tracker.php?f=9&nm=%...1%EB%E5%E4%E0%EC
Сэмпл: http://multi-up.com/830779

Доп. информация: Релиз - http://s49.radikal.ru/i126/1005/66/41ae5e297779.jpg

http://i43.fastpic.ru/big/2012/0921/e9/90d4ee0bff997b63269d9d4b002997e9.jpg
Рип чистый (Прямой поток). Без посторонних надписей. Выкладывается как есть.

Качество: HDTV 1080i
Контейнер: TS
Видео кодек: AVC
Аудио кодек: AC3
Видео: 1920x1080 (16:9) 25.000 fps 7 856 Kbps, 0.151 bit/pixel
Аудио: MPEG Audio 48000Hz stereo 192 Кбит/сек

Скриншоты
http://i53.fastpic.ru/thumb/2013/0213/98/7b88e66e998a1ef1317ccd4c8e80b398.jpeg http://i53.fastpic.ru/thumb/2013/0213/a8/74f3f99cec27ae03fc879736c3359aa8.jpeg http://i53.fastpic.ru/thumb/2013/0213/11/c806848611e9e901ad50984b36dfaa11.jpeg
http://i53.fastpic.ru/thumb/2013/0213/46/197afc5a62ffba6f898172b5a3f33646.jpeg http://i53.fastpic.ru/thumb/2013/0213/ee/89a46c96728f48211f0ef09b5b23a9ee.jpeg http://i53.fastpic.ru/thumb/2013/0213/df/891bd701fe3f6cc6cdf188e0802f77df.jpeg


MI


GeneralID : 1 (0x1)Complete name : G:\ВЫКЛАДКА\HDTV\Сериалы\По горячим следам. Первый сезон (2011, Сериал, Детектив, HDTV) (MYDIMKA)\01 серия.tsFormat : MPEG-TSFile size : 2.59 GiBDuration : 43mn 44sOverall bit rate mode : VariableOverall bit rate : 8 469 Kbps

VideoID : 2911 (0xB5F)Menu ID : 1 (0x1)Format : AVCFormat/Info : Advanced Video CodecFormat profile : High@L4.0Format settings, CABAC : YesFormat settings, ReFrames : 4 framesFormat settings, GOP : M=4, N=32Codec ID : 27Duration : 43mn 44sBit rate : 7 856 KbpsWidth : 1 920 pixelsHeight : 1 080 pixelsDisplay aspect ratio : 16:9Frame rate : 25.000 fpsColor space : YUVChroma subsampling : 4:2:0Bit depth : 8 bitsScan type : MBAFFBits/(Pixel*Frame) : 0.152Stream size : 2.40 GiB (93%)

AudioID : 2912 (0xB60)Menu ID : 1 (0x1)Format : MPEG AudioFormat version : Version 1Format profile : Layer 2Codec ID : 3Duration : 43mn 44sBit rate mode : ConstantBit rate : 192 KbpsChannel(s) : 2 channelsSampling rate : 48.0 KHzCompression mode : LossyDelay relative to video : -40msStream size : 60.1 MiB (2%)Language : Russian



Внимание! Раздача ведётся путём добавления новых выпусков
Внимание! Раздача ведётся путём добавления новых выпусков; при каждом добавлении создётся новый торрент. Чтобы начать докачку нового выпуска, пользователям необходимо сделать следующее:
(1) остановить скачивание,
(2) удалить старый торрент у себя из клиента (старые выпуски удалять не надо),
(3) скачать новый торрент и запустить его у себя в клиенте вместо старого, при этом указать клиенту путь в старую папку куда и должно происходить скачивание новых выпусков.
Ваш клиент при этом должен произвести хеширование (проверку) старой папки (если не производит сам - помогите ему сделать это), и будет докачивать только те выпуски которых у вас ещё нет. Старые выпуски при этом не удаляются, а продолжают раздаваться!
Eсли вы уже удалили старые выпуски, то предотвратить повторную закачку старых выпусков можно, отжав галочку в соответсвующих местах при запуске нового торрента. По возможности, желательно не удалять старые выпуски как можно дольше чтобы релизёр не столько продолжал раздавать старые выпуски, а смог сконцентрироваться на новых.
Похожие файлы
Загрузка / Обновление
КатегорияСериалы RSS лента
Просмотров133 раз (a)
Взят0 раз (a)
Файлы16
Размер41.47 GB (44,529,026,700 байт)
Добавлен
РаздалViKa  (Искать торренты)
Участники
Участники - Загрузка / Обновление
Просматривают Просматривают Загрузка...

-†- ¿? -†-
« Предыдущая - † Страница † - Следующая »

:: Список Комментариев
Нет комментариев.

 Нет комментариев
Вам запрещенно редактировать, создать или удалять комментарии.
shpv© 2007-2014
Страничка сформирована за 0.113 секунд.
Яндекс.Метрика Rambler's Top100