скачать торрент трекер Friends
 
 Главная  •  Торренты  •  Новые релизы  •  Форум  •   •  Персоны кино  •  Правила  •  ЧаВо

Язык интерфейса
Язык интерфейса:


Привет, Гость
[15] из [15]
Введите Логин:
Введите Пароль:
Регистрация
Восстановить Пароль

Линки
АнекдотыБанкоматВсе теги / меткиДополнительные услугиТехподдержка

Главное Меню
 Главная Торренты Релизы за сегодня Персоны кино Запросы / Предложения (3) Правила ЧаВо Проверка BB кодов Топ 10 Архив новостей Прошлые опросы Форматы файлов Группы Последние комментарии Техподдержка

:: Детали раздачи
Торрент раздача является мультитрекерной — учтите, количество раздающих не будет совпадать с количеством участников на сайте (скачивание на клиентской стороне зависит от настроек uTorrent клиент программы, настройки -> Включить DHT, Обмен пирами и Поиск лок-х пиров).
Если висит надпись, пиры по нулям - не бойтесь, возможность скачать повторно торрент раздачу - есть. Попробуйте, в случае отказа - прокоментируйте или нажмите на "Позвать скачавших".

Цветы зла / Серии: 01-04 из 04 (Анна Легчилова)

Скачать
Магнет
ПомощьКак скачать раздачу
Поделиться
Теги / Меткипсихологический детектив
Постер
ОписаниеГод выпуска: 2013
Производство: Россия, "Мосфильм
Жанр: Психологический детектив
Продолжительность: 00:44:47 + 00:43:57 + 00:44:48 + 00:44:41
Субтитры: Отсутствуют

Режиссёр: Анна Легчилова

В ролях: Светлана Антонова, Дмитрий Ульянов, Александр Устюгов, Мария Звонарева, Дмитрий Исаев, Сергей Чирков, Юрий Ваксман, Анфиса Черных и другие.

Описание: Небольшой провинциальный городок потрясает серия жестоких убийств. Рядом с некоторыми убитыми женщинами находят странные бусинки и стихи французского поэта Шарля Бодлера из знаменитого сборника "Цветы зла". Но, не смотря ни на что, полиции так и не удается выйти на след преступника. К расследованию подключается опытный психолог Ирина Елисеева. Ей предстоит составить психологический портрет преступника и разгадать его зловещий план. Но удастся ли ей остановить лавину убийств?...

Все раздачи сериала: http://rutracker.org/forum/tracker.php?f=9&nm=%...0%B7%D0%BB%D0%B0
Сэмпл: http://multi-up.com/862937

Доп. информация: Релиз - http://s49.radikal.ru/i126/1005/66/41ae5e297779.jpg

http://i43.fastpic.ru/big/2012/0921/e9/90d4ee0bff997b63269d9d4b002997e9.jpg
Рип чистый. Без посторонних надписей. Выкладывается как есть.

Качество: HDTV 1080i
Контейнер: TS
Видео кодек: AVC
Аудио кодек: AC3
Видео: 1920x1080 (16:9) 25.000 fps 7 858 Kbps, 0.152 bit/pixel
Аудио: MPEG Audio 48000Hz stereo 192 Кбит/сек

Скриншоты
http://i47.fastpic.ru/thumb/2013/0507/2a/2458afef0d801265e3a4b6300cbb552a.jpeg http://i47.fastpic.ru/thumb/2013/0507/5e/d36520d932c4cb5e5d4acb4649bdd15e.jpeg http://i47.fastpic.ru/thumb/2013/0507/95/80f6c902e70b1c3357df2ad6fde6a195.jpeg
http://i47.fastpic.ru/thumb/2013/0507/06/c7861d7193c9c720a1982607fb264a06.jpeg http://i47.fastpic.ru/thumb/2013/0507/f7/68f499488f7d02c2fe48e446d76499f7.jpeg http://i47.fastpic.ru/thumb/2013/0507/df/d5baa25c613260e72ffd1b9510d020df.jpeg


MI


GeneralID : 1 (0x1)Complete name : J:\ВЫКЛАДКА\HDTV\Сериалы\Цветы зла (2013, Психологический детектив, HDTV) (MYDIMKA)\01 серия.tsFormat : MPEG-TSFile size : 2.64 GiBDuration : 44mn 47sOverall bit rate mode : VariableOverall bit rate : 8 447 Kbps

VideoID : 2911 (0xB5F)Menu ID : 1 (0x1)Format : AVCFormat/Info : Advanced Video CodecFormat profile : High@L4.0Format settings, CABAC : YesFormat settings, ReFrames : 3 framesCodec ID : 27Duration : 44mn 47sBit rate : 7 835 KbpsWidth : 1 920 pixelsHeight : 1 080 pixelsDisplay aspect ratio : 16:9Frame rate : 25.000 fpsColor space : YUVChroma subsampling : 4:2:0Bit depth : 8 bitsScan type : MBAFFBits/(Pixel*Frame) : 0.151Stream size : 2.45 GiB (93%)

AudioID : 2912 (0xB60)Menu ID : 1 (0x1)Format : MPEG AudioFormat version : Version 1Format profile : Layer 2Codec ID : 3Duration : 44mn 47sBit rate mode : ConstantBit rate : 192 KbpsChannel(s) : 2 channelsSampling rate : 48.0 KHzCompression mode : LossyStream size : 61.5 MiB (2%)Language : Russian



Внимание! Раздача ведётся путём добавления новых выпусков
Внимание! Раздача ведётся путём добавления новых выпусков; при каждом добавлении создётся новый торрент. Чтобы начать докачку нового выпуска, пользователям необходимо сделать следующее:
(1) остановить скачивание,
(2) удалить старый торрент у себя из клиента (старые выпуски удалять не надо),
(3) скачать новый торрент и запустить его у себя в клиенте вместо старого, при этом указать клиенту путь в старую папку куда и должно происходить скачивание новых выпусков.
Ваш клиент при этом должен произвести хеширование (проверку) старой папки (если не производит сам - помогите ему сделать это), и будет докачивать только те выпуски которых у вас ещё нет. Старые выпуски при этом не удаляются, а продолжают раздаваться!
Eсли вы уже удалили старые выпуски, то предотвратить повторную закачку старых выпусков можно, отжав галочку в соответсвующих местах при запуске нового торрента. По возможности, желательно не удалять старые выпуски как можно дольше чтобы релизёр не столько продолжал раздавать старые выпуски, а смог сконцентрироваться на новых.
Похожие файлы
Загрузка / Обновление
КатегорияСериалы RSS лента
Просмотров271 раз (a)
Взят0 раз (a)
Файлы4
Размер10.52 GB (11,294,692,388 байт)
Добавлен
РаздалViKa  (Искать торренты)
Участники
Участники - Загрузка / Обновление
Просматривают Просматривают Загрузка...

-†- ¿? -†-
« Предыдущая - † Страница † - Следующая »

:: Список Комментариев
Нет комментариев.

 Нет комментариев
Вам запрещенно редактировать, создать или удалять комментарии.
shpv© 2007-2014
Страничка сформирована за 0.080 секунд.
Яндекс.Метрика Rambler's Top100