скачать торрент трекер Friends
 
 Главная  •  Торренты  •  Новые релизы  •  Форум  •   •  Персоны кино  •  Правила  •  ЧаВо

Язык интерфейса
Язык интерфейса:


Привет, Гость
[15] из [15]
Введите Логин:
Введите Пароль:
Регистрация
Восстановить Пароль

Линки
АнекдотыБанкоматВсе теги / меткиДополнительные услугиТехподдержка

Главное Меню
 Главная Торренты Релизы за сегодня Персоны кино Запросы / Предложения (3) Правила ЧаВо Проверка BB кодов Топ 10 Архив новостей Прошлые опросы Форматы файлов Группы Последние комментарии Техподдержка

:: Детали раздачи
Торрент раздача является мультитрекерной — учтите, количество раздающих не будет совпадать с количеством участников на сайте (скачивание на клиентской стороне зависит от настроек uTorrent клиент программы, настройки -> Включить DHT, Обмен пирами и Поиск лок-х пиров).
Если висит надпись, пиры по нулям - не бойтесь, возможность скачать повторно торрент раздачу - есть. Попробуйте, в случае отказа - прокоментируйте или нажмите на "Позвать скачавших".

Ты не один / Сезон: 1 / Серии: 1-34 из 34 (Дмитрий Панченко)

Скачать
Магнет
ПомощьКак скачать раздачу
Поделиться
Теги / Меткидокументальный, криминал, детектив
Постер
ОписаниеГод выпуска: 2013
Страна: http://i44.fastpic.ru/big/2012/1030/b7/a71ae7ad120e11e57f46d48d3f289cb7.gif Россия / "Объединение Телевизионных Компаний"
Жанр: документальный, криминал, детектив
Продолжительность: ~00:26:00 x34

Режиссёр: Дмитрий Панченко

В ролях: Дмитрий Новицкий (Загорский), Максим Радугин (Кузьмин), Елена Болдина (Шатова), Андрей Москвичев

Описание: Сериал «Ты не один» - истории о буднях адвокатов, чья специализация - оперативная работа по вызову. Трое сотрудников - юрист Владимир Николаевич Кузьмин, бывший оперуполномоченный милиции Максим Геннадьевич Загорский и выпускница престижного юридического ВУЗа Наталья Валерьевна Шатова, используя свои способности, возможности, полезные связи и контакты, экстренно приходят на помощь по первому звонку. Адвокаты работают как скорая помощь: спасают своих клиентов от выбивания долгов; защищают обманутых дольщиков; советуют, как выгодно развестись и избежать уплаты алиментов; помогают получить выплаты от страховой компании или по иску от ресторана за кишечное отравление... Каждая серия - законченное самостоятельное дело.

http://www.kinopoisk.ru/rating/727341.gif http://i5.fastpic.ru/big/2010/1016/79/92b7b0f0c4df92af317ded7a53ae3f79.jpg http://i49.fastpic.ru/big/2012/1207/6d/88ac7ff2b21bcac27ac4427354fa406d.png

Качество видео: HDTVRip [Спасибо mydimka]
Формат: AVI
Видео: XviD, 720x400 (16:9), 704x400 (16:9), 25 fps, ~1400-1800 kbps, 0.250 bpp
Аудио: AC3, 48 kHz, 2/0 (L, R), 192 kbps



Сравнение
HDTVRip http://static.rutracker.org/smiles/icon_arrow.gif http://screenshotcomparison.com/comparison/1555


Все раздачи сериала
http://rutracker.org/forum/tracker.php?f=9&nm=%...%E5+%EE%E4%E8%ED


MediaInfo
General
Complete name : Ты не один (2013) HDTVRip\Ty.ne.odin.S01E01.2013.HDTVRip.XviD.AC3.avi
Format : AVI
Format/Info : Audio Video Interleave
File size : 373 MiB
Duration : 25mn 55s
Overall bit rate : 2 013 Kbps
Writing application : VirtualDubMod 1.5.10.3 | www.virtualdub-fr.org || (build 2550/release)
Writing library : VirtualDubMod build 2550/release

Video
ID : 0
Format : MPEG-4 Visual
Format profile : Advanced Simple@L5
Format settings, BVOP : 1
Format settings, QPel : No
Format settings, GMC : No warppoints
Format settings, Matrix : Custom
Codec ID : XVID
Codec ID/Hint : XviD
Duration : 25mn 55s
Bit rate : 1 811 Kbps
Width : 720 pixels
Height : 400 pixels
Display aspect ratio : 16:9
Frame rate : 25.000 fps
Color space : YUV
Chroma subsampling : 4:2:0
Bit depth : 8 bits
Scan type : Progressive
Compression mode : Lossy
Bits/(Pixel*Frame) : 0.252
Stream size : 336 MiB (90%)
Writing library : XviD 65

Audio
ID : 1
Format : AC-3
Format/Info : Audio Coding 3
Mode extension : CM (complete main)
Codec ID : 2000
Duration : 25mn 55s
Bit rate mode : Constant
Bit rate : 192 Kbps
Channel(s) : 2 channels
Channel positions : Front: L R
Sampling rate : 48.0 KHz
Bit depth : 16 bits
Compression mode : Lossy
Stream size : 35.6 MiB (10%)
Alignment : Split accross interleaves
Interleave, duration : 40 ms (1.00 video frame)
Interleave, preload duration : 500 ms


Скриншоты
http://i52.fastpic.ru/big/2013/0110/ff/9fee94260173c1a6390dc9ad612ba9ff.png
http://i51.fastpic.ru/big/2013/0110/c9/8742d1f9e328c8a33de69a74f9e284c9.png
http://i51.fastpic.ru/big/2013/0110/22/cdfd137e7ce2ad26e56b6b778ca1d922.png
http://i53.fastpic.ru/big/2013/0110/a6/87297735e8e455c3238c3c619a7cd2a6.png
http://i52.fastpic.ru/big/2013/0110/a5/9f7c994b9e28977795da2e996a8528a5.png



Внимание! Раздача ведётся путём добавления новых серий
Внимание! Раздача ведётся путём добавления новых серий; при каждом добавлении создаётся новый торрент. Чтобы начать докачку новой серии, пользователям необходимо сделать следующее:
(1) остановить скачивание,
(2) удалить старый торрент у себя из клиента (старые серии удалять не надо),
(3) скачать новый торрент и запустить его у себя в клиенте вместо старого, при этом указать клиенту путь в старую папку, куда и должно происходить скачивание новых серий.
Ваш клиент при этом должен произвести хеширование (проверку) старой папки (если не производит сам - помогите ему сделать это), и будет докачивать только те серии, которых у вас ещё нет. Старые серии при этом не удаляются, а продолжают раздаваться!
Если вы уже удалили старые серии, то предотвратить повторную закачку старых серий можно, отжав галочку в соответствующих местах при запуске нового торрента. По возможности, желательно не удалять старые серии как можно дольше, чтобы релизёр не столько продолжал раздавать старые выпуски, а смог сконцентрироваться на новых.

Built with Flash Release Т
Скриншоты
Похожие файлы
Загрузка / Обновление
КатегорияСериалы RSS лента
Просмотров198 раз (a)
Взят2 раз (a)
Файлы34
Размер11.12 GB (11,943,438,336 байт)
Добавлен
РаздалViKa  (Искать торренты)
Участники
Участники - Загрузка / Обновление
Просматривают Просматривают Загрузка...

-†- ¿? -†-
« Предыдущая - † Страница † - Следующая »

:: Список Комментариев
Нет комментариев.

 Нет комментариев
Вам запрещенно редактировать, создать или удалять комментарии.
shpv© 2007-2014
Страничка сформирована за 0.627 секунд.
Яндекс.Метрика Rambler's Top100