скачать торрент трекер Friends
 
 Главная  •  Торренты  •  Новые релизы  •  Форум  •   •  Персоны кино  •  Правила  •  ЧаВо

Язык интерфейса
Язык интерфейса:


Привет, Гость
[15] из [15]
Введите Логин:
Введите Пароль:
Регистрация
Восстановить Пароль

Линки
АнекдотыБанкоматВсе теги / меткиДополнительные услугиТехподдержка

Главное Меню
 Главная Торренты Релизы за сегодня Персоны кино Запросы / Предложения (3) Правила ЧаВо Проверка BB кодов Топ 10 Архив новостей Прошлые опросы Форматы файлов Группы Последние комментарии Техподдержка

:: Детали раздачи
Торрент раздача является мультитрекерной — учтите, количество раздающих не будет совпадать с количеством участников на сайте (скачивание на клиентской стороне зависит от настроек uTorrent клиент программы, настройки -> Включить DHT, Обмен пирами и Поиск лок-х пиров).
Если висит надпись, пиры по нулям - не бойтесь, возможность скачать повторно торрент раздачу - есть. Попробуйте, в случае отказа - прокоментируйте или нажмите на "Позвать скачавших".

По горячим следам / Сезон: 1 Серии: 1 - 16 из 16 (Илья Максимов)

Скачать
Магнет
ПомощьКак скачать раздачу
Поделиться
Теги / Меткидетектив
Описаниеhttp://i25.fastpic.ru/big/2011/0804/c4/effaf8fcc8a11af2bc81bb43eb23dec4.jpgГод выпуска: 2011
Производство: Мотор фильм студия
Жанр: Детектив
Продолжительность: ~ 00:42:00 серия
Субтитры: Отсутствуют

Режиссёр: Илья Максимов

В ролях: Мария Порошина, Вячеслав Разбегаев, Дарья Сагалова, Василий Брыков, Александр Тютин, Андрей Балякин, Андрей Кравчук (II), Кристина Савина, Владимир Епифанцев, Дмитрий Титов, Татьяна Лучинина, Наталья Тищенко, Мария Дмитриева, Василий Куприянов, Ольга Мокшина, Дмитрий Скачков, Егор Тимцуник, Олег Захарутин, Евгений Гурьянов, Виталий Евдокимов, Борис Зверев, Сергей Кисса, Анатолий Морозов, Андрей Муравьёв, Алан Плиев, Татьяна Покроева, Сергей Стегайлов, Татьяна Рощина, Юрий Внуков, Александр Макаров, Сергей Проценко, Варвара Репецкая, Ян Романов, Дарья Щербакова, Лия Кетлерова, Владимир Бобров, Виктор Довженко, Максим Дромашко, Елена Куликова, Владимир Лободин, Ирина Никитина, Владимир Прянчин, Екатерина Добровская, Оксана Спиричева, Михаил Гаспарян, Ольга Кузьмина, Карим Пакачаков, Давид Степанян, Виктор Удочкин, Аким Ефремов, Егор Клейменов, Юрий Печенежский, Светлана Чернышева, Наталья Яськова, Александр Числов, Рустам Абдрашитов, Татьяна Павлуцкая, Вячеслав Туник, Александр Шаляпин, Вячеслав Троицкий, Валентин Юнин, Игорь Литовкин (II), Дана Назарова, Елизавета Курбанмагомедова, Елизавета Кюблер, Юрий Котов (II), Евгений Харитонов (III), Кристина Пучкова

Описание: Главные герои сериала, майор милиции Любовь Суворова (Мария Порошина) и капитан Андрей Шульгин (Вячеслав Разбегаев) - сотрудники специального отдела МВД, занимающегося поиском пропавших людей. Суворовой и Шульгину помогает стажёр Ольга (Дарья Сагалова), прилежная и добросовестная девушка, на которую всегда можно положиться. Вместе они берутся за дела, на которые иные следователи махнули бы рукой, и доводят начатое до конца, чего бы это ни стоило. Герои знают: действовать нужно быстро, ведь отыскать пропавшего человека можно только по горячим следам!

Релиз: http://i2.fastpic.ru/big/2010/0213/e8/2b174749f23d6e532f2854ecb44e95e8.gif

http://static.rutracker.org/smiles/icon_arrow.gif
Все раздачи сериала
http://static.rutracker.org/smiles/icon_arrow.gif
[b]СЭМПЛ[/b]

Качество: DVB
Формат: MPEG
Видео кодек: MPEG2
Аудио кодек: MPEG1 Layer 2
Видео: MPEG2 Video 720x576 (4:3) 25.00fps 5 359 Kbps, 0.517 bit/pixel
Аудио: MPEG Audio 48000Hz 2 channels 256 Кбит/сек

MI
Complete name : G:\SERIALY\По горячим следам\По горячим следам.01_DVB_by_CLIPMAN.mpg
Format : MPEG-PS
File size : 1.71 GiB
Duration : 42mn 37s
Overall bit rate : 5 729 Kbps

Video
ID : 224 (0xE0)
Format : MPEG Video
Format version : Version 2
Format profile : Main@Main
Format settings, BVOP : Yes
Format settings, Matrix : Default
Duration : 42mn 36s
Bit rate mode : Variable
Bit rate : 5 359 Kbps
Nominal bit rate : 10 000 Kbps
Width : 720 pixels
Height : 576 pixels
Display aspect ratio : 4:3
Frame rate : 25.000 fps
Standard : PAL
Color space : YUV
Chroma subsampling : 4:2:0
Bit depth : 8 bits
Scan type : Interlaced
Scan order : Top Field First
Bits/(Pixel*Frame) : 0.517
Stream size : 1.60 GiB (94%)

Audio
ID : 192 (0xC0)
Format : MPEG Audio
Format version : Version 1
Format profile : Layer 2
Duration : 42mn 37s
Bit rate mode : Constant
Bit rate : 256 Kbps
Channel(s) : 2 channels
Sampling rate : 48.0 KHz
Stream size : 78.0 MiB (4%)


Скриншоты
http://i26.fastpic.ru/thumb/2011/0804/8a/7fc529845ac77be4d40d865cfdbf7f8a.jpeg http://i26.fastpic.ru/thumb/2011/0804/f9/086e19f21cb886c2574074bd36b3b5f9.jpeg http://i26.fastpic.ru/thumb/2011/0804/ac/15a0611f2e115bef0f092f2c54e70aac.jpeg http://i26.fastpic.ru/thumb/2011/0804/34/3b99c9670635a9204fdebcf3bf49aa34.jpeg http://i26.fastpic.ru/thumb/2011/0804/17/9c3892894e9a0ce1c4dc4d79f80f8017.jpeg http://i26.fastpic.ru/thumb/2011/0804/e4/47592189d2986a55929378fe4bf14ce4.jpeg http://i26.fastpic.ru/thumb/2011/0804/a6/52203841f07d269313d281c27cd7fea6.jpeg http://i26.fastpic.ru/thumb/2011/0804/78/f504287a9544c331f3b3512dd1c72e78.jpeg
Похожие файлы
Загрузка / Обновление
КатегорияСериалы RSS лента
Просмотров184 раз (a)
Взят1 раз (a)
Файлы16
Размер26.75 GB (28,719,190,016 байт)
Добавлен
РаздалViKa  (Искать торренты)
Участники
Участники - Загрузка / Обновление
Просматривают Просматривают Загрузка...

-†- ¿? -†-
« Предыдущая - † Страница † - Следующая »

:: Список Комментариев
Нет комментариев.

 Нет комментариев
Вам запрещенно редактировать, создать или удалять комментарии.
shpv© 2007-2014
Страничка сформирована за 0.107 секунд.
Яндекс.Метрика Rambler's Top100