скачать торрент трекер Friends
 
 Главная  •  Торренты  •  Новые релизы  •  Форум  •   •  Персоны кино  •  Правила  •  ЧаВо

Язык интерфейса
Язык интерфейса:


Привет, Гость
[15] из [15]
Введите Логин:
Введите Пароль:
Регистрация
Восстановить Пароль

Линки
АнекдотыБанкоматВсе теги / меткиДополнительные услугиТехподдержка

Главное Меню
 Главная Торренты Релизы за сегодня Персоны кино Запросы / Предложения (3) Правила ЧаВо Проверка BB кодов Топ 10 Архив новостей Прошлые опросы Форматы файлов Группы Последние комментарии Техподдержка

:: Детали раздачи

По горячим следам / Сезон: 2 Серии: 1-16 из 16 (Илья Максимов)

Скачать
Магнет
ПомощьКак скачать раздачу
Поделиться
Теги / Меткидетектив
Постер
ОписаниеГод выпуска: 2012
Производство: Мотор фильм студия
Жанр: детектив
Продолжительность: ~0:45:00 серия
Субтитры: отсутствуют

Режиссёр: Илья Максимов

В ролях: Мария Порошина, Вячеслав Разбегаев, Владимир Епифанцев, Илья Древнов, Елена Полянская, Павел Попов, Александр Стёпин, Артём Грот, Елена Лопаткина, Алексей Шаранин, Лидия Арефьева, Анастасия Привалова, Валерий Кудашкин, Денис Дружинин, Маргарита Иванова-Донская, Анастасия Сова-Егорова

Описание: Главные герои сериала, Суворова и Шульгин, любят друг друга и собираются объявить всем о своих отношениях. Но возникает неожиданное препятствие – Шульгин получает известие, что женщина по имени Елена, которую он когда-то любил и считал трагически погибшей по его вине, жива. Не разобравшись со своим прошлым, Шульгин не может строить отношения с Суворовой. Кроме того, Елена - ключевой свидетель в давнем незаконченном деле об убийстве. Шульгин не посвящает Суворову в свое расследование, считает это дело слишком личным. И когда Суворова узнаёт о происходящем, ее это сильно задевает. Она вдруг понимает, что совсем ничего не знает про Шульгина: кто он, откуда, каким он был до неё? Они отдаляются друг от друга. Суворова начинает своё параллельное расследование, надеясь тем самым помочь Шульгину и выяснить что-то для себя.
На этом пути они встречают множество преград, их любовь трещит по швам, но, тем не менее, они постепенно, шаг за шагом, узнают друг друга.

Релиз: http://i2.imageban.ru/out/2012/11/20/e578a357671f0643cf4662832e92df53.png

Все раздачи сериала / Сэмпл



Качество: DVB (Express MD1 at 80.0°E)
Формат: MPEG-PS
Видео кодек: MPEG2
Аудио кодек: MP2
Видео: MPEG 2, 720x576 (4:3), 25.000 fps, 5350 Kbps (0.516 bit/pixel)
Аудио: MP2, 48.0 KHz, 2 ch, 256 Kbps, CBR

MediaInfo


ОбщееПолное имя : L:\Раздачи\По горячим следам 2\По горячим следам 2.01.mpgФормат : MPEG-PSРазмер файла : 1,77 ГбайтПродолжительность : 44 м.Режим общего битрейта : ПеременныйОбщий поток : 5721 Кбит/секБиблиотека кодирования : (c) 1998-2012 Womble Multimedia, Inc. / MPEG Video Wizard DVD 5.0.1.100 (03/2011) / Sep 7 2012

ВидеоИдентификатор : 224 (0xE0)Формат : MPEG VideoВерсия формата : Version 2Профиль формата : Main@MainПараметр BVOP формата : ДаПараметр матрицы формата : ВыборочнаяПараметр GOP формата : M=3, N=15Продолжительность : 44 м.Вид битрейта : ПеременныйБитрейт : 5351 Кбит/секМаксимальный битрейт : 15,0 Мбит/секШирина : 720 пикселейВысота : 576 пикселейСоотношение сторон : 4:3Частота кадров : 25,000 кадров/секСтандарт вещания : PALЦветовое пространство : YUVСубдискретизация насыщенности : 4:2:0Битовая глубина : 8 битТип развёртки : ЧересстрочнаяПорядок развёртки : Верхнее поле первоеМетод сжатия : С потерямиБит/(Пиксели*Кадры) : 0.516Размер потока : 1,65 Гбайт (94%)Выравнивание : (c) 1998-2012 Womble Multimedia, Inc. / MPEG Video Wizard DVD 5.0.1.100 (03/2011) / Sep 7 2012Заголовок : (c) 1998-2012 Womble Multimedia, Inc. / MPEG Video Wizard DVD 5.0.1.100 (03/2011) / Sep 7 2012Библиотека кодирования : (c) 1998-2012 Womble Multimedia, Inc. / MPEG Video Wizard DVD 5.0.1.100 (03/2011) / Sep 7 2012

АудиоИдентификатор : 192 (0xC0)Формат : MPEG AudioВерсия формата : Version 1Профиль формата : Layer 2Продолжительность : 44 м.Вид битрейта : ПостоянныйБитрейт : 256 Кбит/секКаналы : 2 каналаЧастота : 48,0 КГцМетод сжатия : С потерямиРазмер потока : 81,0 Мбайт (4%)

Меню



Скриншоты
http://i2.imageban.ru/out/2012/11/28/9b5a6b31288724cdb6334904ec24c9e4.png
http://i3.imageban.ru/out/2012/11/28/5a324f7ed9baf63c458a2b92509dfd06.png
http://i5.imageban.ru/out/2012/11/28/befd082b3f150056a3f5b500f7a1c4f7.png
http://i2.imageban.ru/out/2012/11/28/2402ab8186a57ac27caeae9b0a47ddc9.png


http://i4.imageban.ru/out/2012/11/28/b086bf0c5a90db3497c45f807a403c2d.png
http://i5.imageban.ru/out/2012/11/28/731145bafbb96b2faf0a4e64bbb6e105.png
http://i5.imageban.ru/out/2012/11/28/fb0daac8e103a4f28b2ca2a5843de28a.png
http://i5.imageban.ru/out/2012/11/28/6629faf52b0a4473d4e085360da239a8.png



Внимание! Раздача ведётся путём добавления новых серий
Внимание! Раздача ведётся путём добавления новых серий; при каждом добавлении создаётся новый торрент.
Чтобы начать докачку новой серии, пользователям необходимо сделать следующее:
1) остановить скачивание
2) удалить старый торрент у себя из клиента (старые серии удалять не надо)
3) скачать новый торрент и запустить его у себя в клиенте вместо старого, при этом указать клиенту путь в старую папку куда и должно происходить скачивание новых серий.
Ваш клиент при этом должен произвести хеширование (проверку) старой папки (если не производит сам - помогите ему сделать это), и будет докачивать только те серии которых у вас ещё нет. Старые серии при этом не удаляются, а продолжают раздаваться!
Eсли вы уже удалили старые серии, то предотвратить повторную закачку старых серий можно, отжав галочку в соответствовавших местах при запуске нового торрента.
Скриншоты
Похожие файлы
Загрузка / Обновление
КатегорияСериалы RSS лента
Просмотров211 раз (a)
Взят0 раз (a)
Файлы16
Размер28.06 GB (30,127,810,560 байт)
Добавлен
РаздалViKa  (Искать торренты)
Участники
Участники - Загрузка / Обновление
Просматривают Просматривают Загрузка...

-†- ¿? -†-
« Предыдущая - † Страница † - Следующая »

:: Список Комментариев
Нет комментариев.

 Нет комментариев
Вам запрещенно редактировать, создать или удалять комментарии.
shpv© 2007-2014
Страничка сформирована за 0.180 секунд.
Яндекс.Метрика Rambler's Top100