скачать торрент трекер Friends
 
 Главная  •  Торренты  •  Новые релизы  •  Форум  •   •  Персоны кино  •  Правила  •  ЧаВо

Язык интерфейса
Язык интерфейса:


Привет, Гость
[15] из [15]
Введите Логин:
Введите Пароль:
Регистрация
Восстановить Пароль

Линки
АнекдотыБанкоматВсе теги / меткиДополнительные услугиТехподдержка

Главное Меню
 Главная Торренты Релизы за сегодня Персоны кино Запросы / Предложения (3) Правила ЧаВо Проверка BB кодов Топ 10 Архив новостей Прошлые опросы Форматы файлов Группы Последние комментарии Техподдержка

:: Детали раздачи
Торрент раздача является мультитрекерной — учтите, количество раздающих не будет совпадать с количеством участников на сайте (скачивание на клиентской стороне зависит от настроек uTorrent клиент программы, настройки -> Включить DHT, Обмен пирами и Поиск лок-х пиров).
Если висит надпись, пиры по нулям - не бойтесь, возможность скачать повторно торрент раздачу - есть. Попробуйте, в случае отказа - прокоментируйте или нажмите на "Позвать скачавших".

Пасечник / Серии: 1-32 из 32 (Сергей Быстрицкий)

Скачать
Магнет
ПомощьКак скачать раздачу
Поделиться
Теги / Меткидетектив
Постер
ОписаниеГод выпуска: 2013
Производство: Анкор-Студио по заказу НТВ
Жанр: детектив
Продолжительность: ~0:45:00 серия
Субтитры: нет

Режиссёр: Сергей Быстрицкий

В ролях: Анатолий Журавлёв, Анастасия Панина, Иван Шмаков, Александр Носик, Иван Агапов, Максим Глотов, Бесо Гатаев, Сергей Шарифуллин, Максим Туранцев, Владимир Яковлев, Федор Румянцев, Максим Фролов, Сергей Друзьяк, Екатерина Сахарова, Олег Ребров, Александра Булычёва, Ричард Бондарев, Евгений Рябов, Алексей Герасимов, Наталья Барило

Описание: Глеб Збруев был одним из самых успешных следователей МУРа, пока однажды во время спецоперации его не ранили. Врачи не смогли извлечь шальную пулю, и она осталась внутри, прямо под сердцем, превратившись в бомбу замедленного действия, способную «рвануть» в любой момент.
Из органов «опасного» сотрудника попросили уволиться: начальству не нужен следователь, которому приходится следить за собственным пульсом.
Жена бросила оперативника несколько лет назад, город без любимой работы стал ему чуждым. Тогда-то Збруев и решил сбежать из опостылевшей Москвы в деревню, к своему деду Макарычу. Там он наконец-то обрел спокойствие, нашел место, где все можно начать с начала. Там когда-то крутой столичный следователь стал обыкновенным пасечником.
Так бы и текла незатейливая жизнь Глеба, если бы однажды поселок не потрясла серия загадочных убийств. Все силы местной полиции были брошены на поимку маньяка, однако все тщетно…
Сможет ли Глеб вернуться в строй, отыскать преступника и показать оперативникам, что настоящие следователи бывшими не бывают?

Релиз: http://i2.imageban.ru/out/2012/11/20/e578a357671f0643cf4662832e92df53.png

Все раздачи сериала / Сэмпл



Качество: DVB (Eutelsat 36A at 36.0°E)
Формат: MPEG-PS
Видео кодек: MPEG2
Аудио кодек: MP2
Видео: MPEG 2, 720x576 (16:9), 25.000 fps, 3783 Kbps (0.365 bit/pixel)
Аудио: MP2, 48.0 KHz, 2 ch, 192 Kbps, CBR

MediaInfo


ОбщееПолное имя : L:\Раздачи\Пасечник\Пасечник.01 [rutracker.org].mpgФормат : MPEG-PSРазмер файла : 1,18 ГбайтПродолжительность : 41 м.Режим общего битрейта : ПеременныйОбщий поток : 4055 Кбит/секБиблиотека кодирования : (c) 1998-2012 Womble Multimedia, Inc. / MPEG Video Wizard DVD 5.0.1.100 (03/2011) / Sep 7 2012

ВидеоИдентификатор : 224 (0xE0)Формат : MPEG VideoВерсия формата : Version 2Профиль формата : Main@MainПараметр BVOP формата : ДаПараметр матрицы формата : ВыборочнаяПараметр GOP формата : VariableПродолжительность : 41 м.Вид битрейта : ПеременныйБитрейт : 3783 Кбит/секМаксимальный битрейт : 15,0 Мбит/секШирина : 720 пикселейВысота : 576 пикселейСоотношение сторон : 16:9Частота кадров : 25,000 кадров/секСтандарт вещания : PALЦветовое пространство : YUVСубдискретизация насыщенности : 4:2:0Битовая глубина : 8 битТип развёртки : ЧересстрочнаяПорядок развёртки : Верхнее поле первоеМетод сжатия : С потерямиБит/(Пиксели*Кадры) : 0.365Временной код первого кадра : 00:00:00:00Оригинал временного кода : Group of pictures headerРазмер потока : 1,10 Гбайт (93%)Библиотека кодирования : (c) 1998-2012 Womble Multimedia, Inc. / MPEG Video Wizard DVD 5.0.1.100 (03/2011) / Sep 7 2012

АудиоИдентификатор : 192 (0xC0)Формат : MPEG AudioВерсия формата : Version 1Профиль формата : Layer 2Продолжительность : 41 м.Вид битрейта : ПостоянныйБитрейт : 192 Кбит/секКаналы : 2 каналаЧастота : 48,0 КГцМетод сжатия : С потерямиЗадержка видео : -40 мс.Размер потока : 57,4 Мбайт (5%)

Меню



Скриншоты
http://i1.imageban.ru/out/2013/10/07/6232e100b52aaaae206ba5c73ae4d7fb.png
http://i2.imageban.ru/out/2013/10/07/8ed2f05d4bfb81bf61899301fb583c9c.png
http://i3.imageban.ru/out/2013/10/07/462510ab3e580580a2c5153a6ef38197.png
http://i6.imageban.ru/out/2013/10/07/24e1c5ee960139ea5563d4a56cf1ac8b.png


http://i2.imageban.ru/out/2013/10/07/424c0dbf58cc1b16e737b23dcc7329c4.png
http://i1.imageban.ru/out/2013/10/07/1f9f72278d18c553bd92c20b50fe9637.png
http://i1.imageban.ru/out/2013/10/07/36f8a572b1a8f7118f286f33ec482bb2.png
http://i1.imageban.ru/out/2013/10/07/d8b2dface436ecb01d4bf452e394b0ba.png



Раздача ведется путем добавления новых серий
Внимание! Раздача ведётся путём добавления новых серий; при каждом добавлении создаётся новый торрент. Чтобы начать докачку новой серии, пользователям необходимо сделать следующее:
(1) остановить скачивание,
(2) удалить старый торрент у себя из клиента (старые серии удалять не надо),
(3) скачать новый торрент и запустить его у себя в клиенте вместо старого, при этом указать клиенту путь в старую папку куда и должно происходить скачивание новых серий.
Ваш клиент при этом должен произвести хеширование (проверку) старой папки (если не производит сам - помогите ему сделать это), и будет докачивать только те серии которых у вас ещё нет. Старые серии при этом не удаляются, а продолжают раздаваться!
Eсли вы уже удалили старые серии, то предотвратить повторную закачку старых серий можно, отжав галочку в соответствующих местах при запуске нового торрента.
Скриншоты
Похожие файлы
Загрузка / Обновление
КатегорияСериалы RSS лента
Просмотров277 раз (a)
Взят2 раз (a)
Файлы32
Размер41.52 GB (44,584,060,928 байт)
Добавлен
РаздалViKa  (Искать торренты)
Участники
Участники - Загрузка / Обновление
Просматривают Просматривают Загрузка...

-†- ¿? -†-
« Предыдущая - † Страница † - Следующая »

:: Список Комментариев
Нет комментариев.

 Нет комментариев
Вам запрещенно редактировать, создать или удалять комментарии.
shpv© 2007-2014
Страничка сформирована за 0.872 секунд.
Яндекс.Метрика Rambler's Top100