скачать торрент трекер Friends
 
 Главная  •  Торренты  •  Новые релизы  •  Форум  •   •  Персоны кино  •  Правила  •  ЧаВо

Язык интерфейса
Язык интерфейса:


Привет, Гость
[15] из [15]
Введите Логин:
Введите Пароль:
Регистрация
Восстановить Пароль

Линки
АнекдотыБанкоматВсе теги / меткиДополнительные услугиТехподдержка

Главное Меню
 Главная Торренты Релизы за сегодня Персоны кино Запросы / Предложения (3) Правила ЧаВо Проверка BB кодов Топ 10 Архив новостей Прошлые опросы Форматы файлов Группы Последние комментарии Техподдержка

:: Детали раздачи
Торрент раздача является мультитрекерной — учтите, количество раздающих не будет совпадать с количеством участников на сайте (скачивание на клиентской стороне зависит от настроек uTorrent клиент программы, настройки -> Включить DHT, Обмен пирами и Поиск лок-х пиров).
Если висит надпись, пиры по нулям - не бойтесь, возможность скачать повторно торрент раздачу - есть. Попробуйте, в случае отказа - прокоментируйте или нажмите на "Позвать скачавших".

На одном дыхании / Серии: 1-4 из 4 (Александр Соловьёв)

Скачать
Магнет
ПомощьКак скачать раздачу
Поделиться
Теги / Меткидетектив
Постер
ОписаниеГод выпуска: 2014
Производство: Россия, "СВЭЛЛ фильм"
Жанр: Детектив
Продолжительность: ~0:45:00 серия
Субтитры: нет

Режиссёр: Александр Соловьёв

В ролях: Дарья Чаруша, Андрей Биланов, Ирина Гринёва, Валерий Трошин, Алексей Юдников, Ольга Волкова, Олег Марусев, Екатерина Соловьева

Описание: Экранизация романа Татьяны Устиновой. Владимир Разлогов – успешный бизнесмен. Главный его помощник – заместитель Марк Волошин, с которым Разлогов дружит со студенческих лет. Владимир счастлив и в личной жизни: жена Глафира очень любит мужа, и у него сохранились хорошие отношения с бывшей супругой Мариной – известной актрисой. Но однажды всё меняется...

Все раздачи сериала: На одном дыхании

http://i29.fastpic.ru/big/2011/1030/ea/b1cf2ef64e49d1b69670beab9a74f7ea.png

Качество: SATRip
Формат: AVI
Видео кодек: XviD
Аудио кодек:AC3
Видео: 720x400 (1.80:1), 25 fps, XviD build 50 ~1522 kbps avg, 0.21 bit/pixel
Аудио: 48 kHz, AC3 Dolby Digital, 2/0 (L,R) ch, ~192 kbps

Сторонней рекламы нет!

MediaInfo


ОбщееПолное имя : F:\На одном дыхании SATRip XviD\На одном дыхании 01_серия_SATRip_XviD.aviФормат : AVIФормат/Информация : Audio Video InterleaveРазмер файла : 550 МбайтПродолжительность : 44 м.Общий поток : 1725 Кбит/секПрограмма кодирования : VirtualDubMod 1.5.10.3 | www.virtualdub-fr.org || (build 2550/release)Библиотека кодирования : VirtualDubMod build 2550/release

ВидеоИдентификатор : 0Формат : MPEG-4 VisualПрофиль формата : Advanced Simple@L5Параметр BVOP формата : 2Параметр QPel формата : НетПараметр GMC формата : Без точки переходаПараметр матрицы формата : Default (H.263)Идентификатор кодека : XVIDИдентификатор кодека/Подсказка : XviDПродолжительность : 44 м.Битрейт : 1523 Кбит/секШирина : 720 пикс.Высота : 400 пикс.Соотношение сторон : 16:9Частота кадров : 25,000 кадр/секЦветовое пространство : YUVПодвыборка цветности : 4:2:0Битовая глубина : 8 битТип развёртки : ПрогрессивнаяМетод сжатия : С потерямиБит/(Пиксели*Кадры) : 0.211Размер потока : 486 Мбайт (88%)Библиотека кодирования : XviD 1.2.1 (UTC 2008-12-04)

АудиоИдентификатор : 1Формат : AC-3Формат/Информация : Audio Coding 3Расширение режима : CM (complete main)Идентификатор кодека : 2000Продолжительность : 44 м.Вид битрейта : ПостоянныйБитрейт : 192 Кбит/секКаналы : 2 каналаРасположение каналов : Front: L RЧастота : 48,0 КГцБитовая глубина : 16 битМетод сжатия : С потерямиРазмер потока : 61,3 Мбайт (11%)Выравнивание : Разделение по промежуткамПродолжительность промежутка : 40 мс. (1,00 видеокадр)Время предзагрузки промежутка : 500 ms


Раздача группы: http://savepic.su/3981179.png

Отдельное спасибо [b]wowa63[/b] за предоставление материала.[/color

Внимание ! Раздача ведётся путём добавления новых серий
Внимание! Раздача ведётся путём добавления новых серий; при каждом добавлении создётся новый торрент. Чтобы начать докачку новой серии, пользователям необходимо сделать следующее:
(1) остановить скачивание,
(2) удалить старый торрент у себя из клиента (старые серии удалять не надо),
(3) скачать новый торрент и запустить его у себя в клиенте вместо старого, при этом указать клиенту путь в старую папку куда и должно происходить скачивание новых серий.
Ваш клиент при этом должен произвести хеширование (проверку) старой папки (если не производит сам - помогите ему сделать это), и будет докачивать только те серии которых у вас ещё нет. Старые серии при этом не удаляются, а продолжают раздаваться!
Eсли вы уже удалили старые серии, то предотвратить повторную закачку старых серий можно, отжав галочку в соответсвующих местах при запуске нового торрента. По возможности, желательно не удалять старые серии как можно дольше чтобы релизёр не столько продолжал раздавать старые серии, а смог сконцентрироваться на новых.

ВНИМАНИЕ! ТОРРЕНТ ПЕРЕЗАЛИТ! ДОБАВЛЕНА 4-ая СЕРИИ!

Скриншоты
http://i56.fastpic.ru/thumb/2014/0427/d7/75790a368bb95770751a76b39c3fc4d7.jpeg http://i56.fastpic.ru/thumb/2014/0427/34/adfcc73c5e4acdd6ceccc031d09c8834.jpeg http://i56.fastpic.ru/thumb/2014/0427/80/b050e0a828c64f2d33e9b3d6fb551580.jpeg http://i56.fastpic.ru/thumb/2014/0427/ce/ce4dab81a7407b2f9dbb544c31bd21ce.jpeg

http://i17.fastpic.ru/big/2011/0302/93/84d6588c7f6e1cc66b53d3103e74fa93.gif[/img][img]http://s60.radikal.ru/i170/1007/6a/664e8d89abdf.gif
Похожие файлы
Загрузка / Обновление
КатегорияСериалы RSS лента
Просмотров109 раз (a)
Взят0 раз (a)
Файлы4
Размер2.15 GB (2,307,265,344 байт)
Добавлен
РаздалViKa  (Искать торренты)
Участники
Участники - Загрузка / Обновление
Просматривают Просматривают Загрузка...

-†- ¿? -†-
« Предыдущая - † Страница † - Следующая »

:: Список Комментариев
Нет комментариев.

 Нет комментариев
Вам запрещенно редактировать, создать или удалять комментарии.
shpv© 2007-2014
Страничка сформирована за 0.215 секунд.
Яндекс.Метрика Rambler's Top100