скачать торрент трекер Friends
 
 Главная  •  Торренты  •  Новые релизы  •  Форум  •   •  Персоны кино  •  Правила  •  ЧаВо

Язык интерфейса
Язык интерфейса:


Привет, Гость
[15] из [15]
Введите Логин:
Введите Пароль:
Регистрация
Восстановить Пароль

Линки
АнекдотыБанкоматВсе теги / меткиДополнительные услугиТехподдержка

Главное Меню
 Главная Торренты Релизы за сегодня Персоны кино Запросы / Предложения (3) Правила ЧаВо Проверка BB кодов Топ 10 Архив новостей Прошлые опросы Форматы файлов Группы Последние комментарии Техподдержка

:: Детали раздачи
Торрент раздача является мультитрекерной — учтите, количество раздающих не будет совпадать с количеством участников на сайте (скачивание на клиентской стороне зависит от настроек uTorrent клиент программы, настройки -> Включить DHT, Обмен пирами и Поиск лок-х пиров).
Если висит надпись, пиры по нулям - не бойтесь, возможность скачать повторно торрент раздачу - есть. Попробуйте, в случае отказа - прокоментируйте или нажмите на "Позвать скачавших".

Менты. Тайны большого города / Сезон: 1 / Серии: 1-4 из 4 (Вячеслав Криштофович)

Скачать
Магнет
ПомощьКак скачать раздачу
Поделиться
Теги / Меткидетектив
Постер
ОписаниеГод выпуска: 2012
Производство: Украина/Украинская Медийная Группа
Жанр: детектив
Продолжительность: 00:37:00
Субтитры: нет

Режиссёр: Вячеслав Криштофович

В ролях: Сергей Романюк, Станислав Боклан, Игорь Писный, Андрей Кронглевский, Александр Игнатуша, Павел Алдошин, Елизавета Курбанмагомедова, Оскар Кучера, Александр Половцев, Александр Заднепровский, Владимир Тимофейчук

Описание: Четырем сотрудникам городского управления МВД, которых волею вышестоящего начальства на 2 месяца свели во временный "штрафной" отдел, грозят увольнениям. На них сбросили кипу нераскрытых дел, бесперспективных "висяков". Но есть одно условие: как пообещал начальник управления, "пятьдесят процентов раскроете – объявлю амнистию!". Терять любимую работу никто не хочет, а значит нужно взяться за дело с особым рвением.

Все раздачи сериала: http://rutracker.org/forum/tracker.php?f=9&nm=%...3%EE%F0%EE%E4%E0
Сэмпл: http://multi-up.com/970860

Качество: SATRip
Формат: AVI
Видео кодек: DivX
Аудио кодек: MP3
Видео: 704x368 (1.91:1), 25 fps, DivX Codec 6.8.5/6.9.1 ~1499 kbps avg, 0.23 bit/pixel
Аудио: 48 kHz, MPEG Layer 3, 2 ch, ~128.00 kbps avg

MI
General
Complete name : G:\Тайны большого города\Menty.Tainy.bolshogo.goroda.s01e01.avi
Format : AVI
Format/Info : Audio Video Interleave
File size : 436 MiB
Duration : 37mn 14s
Overall bit rate : 1 637 Kbps
Writing application : VirtualDubMod 1.5.10.2 (build 2540/release)
Writing library : VirtualDub build 29808/release

Video
ID : 0
Format : MPEG-4 Visual
Format settings, BVOP : 1
Format settings, QPel : No
Format settings, GMC : No warppoints
Format settings, Matrix : Default (H.263)
Muxing mode : Packed bitstream
Codec ID : DX50
Codec ID/Hint : DivX 5
Duration : 37mn 14s
Bit rate : 1 499 Kbps
Width : 704 pixels
Height : 368 pixels
Display aspect ratio : 1.913
Frame rate : 25.000 fps
Color space : YUV
Chroma subsampling : 4:2:0
Bit depth : 8 bits
Scan type : Progressive
Compression mode : Lossy
Bits/(Pixel*Frame) : 0.232
Stream size : 399 MiB (92%)
Writing library : DivX 6.8.5 (UTC 2009-08-20)

Audio
ID : 1
Format : MPEG Audio
Format version : Version 1
Format profile : Layer 3
Mode : Joint stereo
Codec ID : 55
Codec ID/Hint : MP3
Duration : 37mn 14s
Bit rate mode : Constant
Bit rate : 128 Kbps
Channel(s) : 2 channels
Sampling rate : 48.0 KHz
Compression mode : Lossy
Stream size : 34.1 MiB (8%)
Alignment : Aligned on interleaves
Interleave, duration : 40 ms (1.00 video frame)
Interleave, preload duration : 504 ms
Writing library : LAME3.90.3


Скриншоты
[img]http://s020.radikal.ru/i713/1405/db/d4f22ece178ft.jpg[/img][img]http://s020.radikal.ru/i721/1405/36/3dfa5e4a6df2t.jpg[/img][img]http://s017.radikal.ru/i419/1405/ea/06618db3f5det.jpg[/img][img]http://s003.radikal.ru/i204/1405/a7/2ee6a8c28234t.jpg[/img][img]http://s47.radikal.ru/i115/1405/83/3875059adf4bt.jpg[/img][img]http://s020.radikal.ru/i722/1405/42/388d9a93cc77t.jpg" alt="http://s019.radikal.ru/i606/1405/af/3860814be57at.jpg[/img][img]http://s020.radikal.ru/i713/1405/db/d4f22ece178ft.jpg[/img][img]http://s020.radikal.ru/i721/1405/36/3dfa5e4a6df2t.jpg[/img][img]http://s017.radikal.ru/i419/1405/ea/06618db3f5det.jpg[/img][img]http://s003.radikal.ru/i204/1405/a7/2ee6a8c28234t.jpg[/img][img]http://s47.radikal.ru/i115/1405/83/3875059adf4bt.jpg[/img][img]http://s020.radikal.ru/i722/1405/42/388d9a93cc77t.jpg" />
Похожие файлы
Загрузка / Обновление
КатегорияСериалы RSS лента
Просмотров115 раз (a)
Взят5 раз (a)
Файлы5
Размер1.76 GB (1,886,600,202 байт)
Добавлен
РаздалViKa  (Искать торренты)
Участники
Участники - Загрузка / Обновление
Просматривают Просматривают Загрузка...

-†- ¿? -†-
« Предыдущая - † Страница † - Следующая »

:: Список Комментариев
Нет комментариев.

 Нет комментариев
Вам запрещенно редактировать, создать или удалять комментарии.
shpv© 2007-2014
Страничка сформирована за 0.374 секунд.
Яндекс.Метрика Rambler's Top100