скачать торрент трекер Friends
 
 Главная  •  Торренты  •  Новые релизы  •  Форум  •   •  Персоны кино  •  Правила  •  ЧаВо

Язык интерфейса
Язык интерфейса:


Привет, Гость
[15] из [15]
Введите Логин:
Введите Пароль:
Регистрация
Восстановить Пароль

Линки
АнекдотыБанкоматВсе теги / меткиДополнительные услугиТехподдержка

Главное Меню
 Главная Торренты Релизы за сегодня Персоны кино Запросы / Предложения (3) Правила ЧаВо Проверка BB кодов Топ 10 Архив новостей Прошлые опросы Форматы файлов Группы Последние комментарии Техподдержка

:: Детали раздачи

Княжна из хрущевки (Княжна) / Серии: 1-2 из 2 (Тимур Кабулов)

Скачать
Магнет
ПомощьКак скачать раздачу
Поделиться
Теги / Меткилирическая комедия
Постер
ОписаниеГод выпуска: 2013
Производство: Россия, компания "Пирамида"
Жанр: Лирическая комедия
Продолжительность: 2х ~ 01:30:00
Субтитры: нет

Режиссёр: Тимур Кабулов

В ролях: Евгения Туркова, Станислав Бондаренко, Елена Панова, Дарья Калмыкова, Артем Артемьев, Сергей Неудачин, Ольга Дибцева, Тамара Спиричева, Диана Корсс

Описание: Благодаря цепочке комических и немного странных обстоятельств, простая девушка Лиза, с рабочей окраины Москвы, где она живет с отцом-сантехником, устраивается домработницей к преуспевающему владельцу модного глянцевого журнала "Кабриолет" Гарику. Он живет в старом арбатском доме, в квартире своего отца, когда то известного, а ныне покойного дирижера. Сводная сестра бизнесмена Женя, которая занимается шоу бизнесом, решает помочь бедной девочке, и сделать из нее "светскую львицу", "княгиню", наследницу большого состояния. Но для этого нужно привить девушке манеры, избавить от косноязычия, да и вообще, "вправить мозги". Гарика знакомят с наследницей многомиллионного состояния Елизаветой. Он поначалу принимает всё за чистую монету. Женя уверена - если уж его провели, то остальных, которые не знали прежнюю Лизу, и подавно. Но Гарик стоит на своём. Можно прилично одеть и научить правильно говорить, но через час общения она себя выдаст и опозориться. Только спустя год Гарик встретит Лизу, которая к тому времени поступит в институт и будет так же далека от образа, придуманного Женей, как и от себя самой в начале истории.

Огромное спасибо posters-ks за предоставленный постер

http://static.rutracker.org/smiles/icon_arrow.gif
Все раздачи сериала

http://static.rutracker.org/smiles/icon_arrow.gif
Сэмпл

Качество: HDTV (1080i)
Формат: MPEG-TS
Видео кодек: AVC
Аудио кодек: MPEG1 Layer 2
Видео: AVC, 1920x1080 (16:9) 25.000 fps 8 385 Kbps, 0.162 bit/pixel
Аудио: MPEG Audio, 48 kHz, stereo, 192 kbps

Релиз от: http://i51.fastpic.ru/big/2013/0325/da/be4adcaf7aa528185a5b43787eaae1da.gif

MI
General
ID : 1 (0x1)
Complete name : V:\ftp4\Videos\Knyazhna.iz.Khrushchevki.1.seriya.2013.HDTV.Files-x.ts
Format : MPEG-TS
File size : 5.55 GiB
Duration : 1h 28mn
Overall bit rate mode : Variable
Overall bit rate : 9 025 Kbps

Video
ID : 69 (0x45)
Menu ID : 1 (0x1)
Format : AVC
Format/Info : Advanced Video Codec
Format profile : Main@L4.0
Format settings, CABAC : Yes
Format settings, ReFrames : 4 frames
Codec ID : 27
Duration : 1h 28mn
Bit rate : 8 385 Kbps
Width : 1 920 pixels
Height : 1 080 pixels
Display aspect ratio : 16:9
Frame rate : 25.000 fps
Standard : Component
Color space : YUV
Chroma subsampling : 4:2:0
Bit depth : 8 bits
Scan type : Interlaced
Scan order : Top Field First
Bits/(Pixel*Frame) : 0.162
Stream size : 5.16 GiB (93%)
Color primaries : BT.709
Transfer characteristics : BT.709
Matrix coefficients : BT.709

Audio
ID : 68 (0x44)
Menu ID : 1 (0x1)
Format : MPEG Audio
Format version : Version 1
Format profile : Layer 2
Codec ID : 3
Duration : 1h 28mn
Bit rate mode : Constant
Bit rate : 192 Kbps
Channel(s) : 2 channels
Sampling rate : 48.0 KHz
Compression mode : Lossy
Stream size : 121 MiB (2%)
Language : Russian


Скриншоты
http://s43.radikal.ru/i101/1306/7e/92419b1898be.png
http://s50.radikal.ru/i127/1306/de/1f743bdb12ec.png
http://s41.radikal.ru/i092/1306/9b/72ad8f62fac4.png
http://s61.radikal.ru/i173/1306/17/b410e25d6beb.png
Скриншоты
Похожие файлы
Загрузка / Обновление
КатегорияСериалы RSS лента
Просмотров191 раз (a)
Взят0 раз (a)
Файлы2
Размер10.38 GB (11,144,235,988 байт)
Добавлен
РаздалViKa  (Искать торренты)
Участники
Участники - Загрузка / Обновление
Просматривают Просматривают Загрузка...

-†- ¿? -†-
« Предыдущая - † Страница † - Следующая »

:: Список Комментариев
Нет комментариев.

 Нет комментариев
Вам запрещенно редактировать, создать или удалять комментарии.
shpv© 2007-2014
Страничка сформирована за 0.107 секунд.
Яндекс.Метрика Rambler's Top100