скачать торрент трекер Friends
 
 Главная  •  Торренты  •  Новые релизы  •  Форум  •   •  Персоны кино  •  Правила  •  ЧаВо

Язык интерфейса
Язык интерфейса:


Привет, Гость
[15] из [15]
Введите Логин:
Введите Пароль:
Регистрация
Восстановить Пароль

Линки
АнекдотыБанкоматВсе теги / меткиДополнительные услугиТехподдержка

Главное Меню
 Главная Торренты Релизы за сегодня Персоны кино Запросы / Предложения (3) Правила ЧаВо Проверка BB кодов Топ 10 Архив новостей Прошлые опросы Форматы файлов Группы Последние комментарии Техподдержка

:: Детали раздачи

СБУ.Спецоперация / Сезон: Серии: 1-8 из 8 (Андрей Нестеренко)

Скачать
Магнет
ПомощьКак скачать раздачу
Поделиться
Теги / Меткирасследование
Описаниеhttp://i35.fastpic.ru/big/2012/0424/a9/472f66ceedfecefbd6e0ee486b657da9.jpgГод выпуска: 2012
Производство: Istil Studios
Жанр: Расследование
Продолжительность: ~ 52 минут серия
Субтитры: Украинские (вшитые)

Режиссёр: Андрей Нестеренко

В ролях: Александр Суворов, Вячеслав Довженко, Татьяна Коновалова, Олесь Кацион

Описание: Данный проект стал своеобразным сериалом-расследованием, освещающем опасные трудовые будни одной из главных силовых структур украинского государства. В основу каждого сюжета положены события, имевшие место в реальной человеческой жизни. Общественность еще ни разу не слышала о них и, тем более, не видела подобные сюжеты в новостных сводках.

Они несли прямую угрозу жизни и безопасности жизнедеятельности украинских граждан, а также страны в целом. В роли главных героев выступают именно работники этой спецслужбы, находящейся на страже государственного покоя.

Все раздачи сериала:http://rutracker.org/forum/tracker.php?f=9&nm=%...5%F0%E0%F6%E8%FF

Сэмпл: http://multi-up.com/691530

SATRip - http://rutracker.org/forum/viewtopic.php?t=4036108

[b]Релиз от[/b] http://i29.fastpic.ru/big/2012/0211/13/c3d0529aaed692195067fe54b69b4013.gif & http://i32.fastpic.ru/big/2012/0116/cf/b09ced727f43a341c7bcad45c945e4cf.gif специально для http://i27.fastpic.ru/big/2012/0325/33/f1c526179e9bbca6ad5519c20fd98b33.gif

Раздача от группы: http://i31.fastpic.ru/big/2011/1007/27/e3f9fe81c2ca0a13899a5eae0500c827.gif

Качество: DVB
Формат: MPEG
Видео кодек: MPEG2
Аудио кодек: MPEG1
Видео: MPEG2 Video, 704x576 (4:3), 25.00fps, ~2100 Kbps, 0.206 bit/pixel
Аудио: MPEG Audio, 48000Hz, 2ch, 192 Кбит/сек

Скриншоты
http://i37.fastpic.ru/thumb/2012/0424/7b/fcbabdef90b80927c2a65b8ae7205c7b.jpeg http://i37.fastpic.ru/thumb/2012/0424/14/f593a9ea94dec68de64e145d98c30114.jpeg http://i37.fastpic.ru/thumb/2012/0424/79/81014b863a045a145d32e90c93aa0579.jpeg http://i36.fastpic.ru/thumb/2012/0424/51/e792c6c36bf5fb1075055235018b8251.jpeg http://i33.fastpic.ru/thumb/2012/0424/79/f678019fccaf91d4b4695a3d1d214579.jpeg http://i34.fastpic.ru/thumb/2012/0424/c2/fd283b30ec08dfaf782f6602eb8278c2.jpeg http://i36.fastpic.ru/thumb/2012/0424/6d/e608e73c34740ed5ce68e769f582a76d.jpeg http://i36.fastpic.ru/thumb/2012/0424/8a/3348952c3b311f613a3ebb395f25148a.jpeg


MI
Общее
Полное имя 01 серия__DVB by volk & UAOnline.mpg
Формат : MPEG-PS
Размер файла : 867 Мбайт
Продолжительность : 52 м.
Режим общего битрейта : Переменный
Общий поток : 2325 Кбит/сек
Библиотека кодирования : (c) 1998-2010 Womble Multimedia, Inc. / MPEG Video Wizard DVD 5.0.0.114 (01/2010) / Nov 13 2010

Видео
Идентификатор : 224 (0xE0)
Формат : MPEG Video
Версия формата : Version 2
Профиль формата : Main@Main
Параметр BVOP формата : Да
Параметр матрицы формата : Выборочная
Параметр GOP формата : M=1, N=15
Продолжительность : 52 м.
Вид битрейта : Переменный
Битрейт : 2086 Кбит/сек
Максимальный битрейт : 15,0 Мбит/сек
Ширина : 704 пикселя
Высота : 576 пикселей
Соотношение сторон : 4:3
Частота кадров : 25,000 кадров/сек
Стандарт вещания : PAL
Цветовое пространство : YUV
Субдискретизация насыщенности : 4:2:0
Битовая глубина : 8 бит
Тип развёртки : Чересстрочная
Порядок развёртки : Верхнее поле первое
Метод сжатия : С потерями
Бит/(Пиксели*Кадры) : 0.206
Размер потока : 778 Мбайт (90%)
Библиотека кодирования : (c) 1998-2010 Womble Multimedia, Inc. / MPEG Video Wizard DVD 5.0.0.114 (01/2010) / Nov 13 2010

Аудио
Идентификатор : 192 (0xC0)
Формат : MPEG Audio
Версия формата : Version 1
Профиль формата : Layer 2
Продолжительность : 52 м.
Вид битрейта : Постоянный
Битрейт : 192 Кбит/сек
Каналы : 2 канала
Частота : 48,0 КГц
Метод сжатия : С потерями
Размер потока : 71,6 Мбайт (8%)


Внимание! Раздача ведётся путём добавления новых серий!!!
Внимание! Раздача ведётся путём добавления новых серий
Внимание! Раздача ведётся путём добавления новых серий; при каждом добавлении создаётся новый торрент.
Чтобы начать докачку новой серии, пользователям необходимо сделать следующее:
1) остановить скачивание
2) удалить старый торрент у себя из клиента (старые серии удалять не надо)
3) скачать новый торрент и запустить его у себя в клиенте вместо старого, при этом указать клиенту путь в старую папку куда и должно происходить скачивание новых серий.
Ваш клиент при этом должен произвести хеширование (проверку) старой папки (если не производит сам - помогите ему сделать это), и будет докачивать только те серии которых у вас ещё нет. Старые серии при этом не удаляются, а продолжают раздаваться!
Eсли вы уже удалили старые серии, то предотвратить повторную закачку старых серий можно, отжав галочку в соответствовавших местах при запуске нового торрента.


Добавлена 7 и 8 серия!!!
Обновите торрент файл!!!http://i28.fastpic.ru/big/2011/1129/42/a1590159211758961b9057448db6d942.gif
Похожие файлы
Загрузка / Обновление
КатегорияСериалы RSS лента
Просмотров125 раз (a)
Взят2 раз (a)
Файлы8
Размер6.20 GB (6,659,508,224 байт)
Добавлен
РаздалViKa  (Искать торренты)
Участники
Участники - Загрузка / Обновление
Просматривают Просматривают Загрузка...

-†- ¿? -†-
« Предыдущая - † Страница † - Следующая »

:: Список Комментариев
Нет комментариев.

 Нет комментариев
Вам запрещенно редактировать, создать или удалять комментарии.
shpv© 2007-2014
Страничка сформирована за 0.415 секунд.
Яндекс.Метрика Rambler's Top100