скачать торрент трекер Friends
 
 Главная  •  Торренты  •  Новые релизы  •  Форум  •   •  Персоны кино  •  Правила  •  ЧаВо

Язык интерфейса
Язык интерфейса:


Привет, Гость
[15] из [15]
Введите Логин:
Введите Пароль:
Регистрация
Восстановить Пароль

Линки
АнекдотыБанкоматВсе теги / меткиДополнительные услугиТехподдержка

Главное Меню
 Главная Торренты Релизы за сегодня Персоны кино Запросы / Предложения (3) Правила ЧаВо Проверка BB кодов Топ 10 Архив новостей Прошлые опросы Форматы файлов Группы Последние комментарии Техподдержка

:: Детали раздачи
Торрент раздача является мультитрекерной — учтите, количество раздающих не будет совпадать с количеством участников на сайте (скачивание на клиентской стороне зависит от настроек uTorrent клиент программы, настройки -> Включить DHT, Обмен пирами и Поиск лок-х пиров).
Если висит надпись, пиры по нулям - не бойтесь, возможность скачать повторно торрент раздачу - есть. Попробуйте, в случае отказа - прокоментируйте или нажмите на "Позвать скачавших".

Ой, Ма-моч-ки!.. (Ой, мамочки!), Серия 1-4 из 12 (Иван Павлов)

Скачать
Магнет
ПомощьКак скачать раздачу
Поделиться
Теги / Меткимелодрама
Постер
ОписаниеГод выпуска: 2013-2014
Производство: Беларусь, «Беларусьфильм» и ООО «Студия «Мы» (Россия)
Жанр: мелодрама
Продолжительность: 00:49:00

Режиссёр: Иван Павлов

В ролях: Александр Макогон, Вера Полякова, Александра Назарова, Анна Казючиц, Игорь Сигов, Алеся Пуховая, Валентина Гарцуева, Светлана Боровская, Анастасия Орёл, Денис Паршин, Владислав Бархатов, Сергей Власов (IV), Татьяна Чердынцева, Елена Дубровская, Инна Коляда, Яна Касперович, Светлана Аникей, Светлана Зеленковская, Оксана Лесная, Вероника Пляшкевич, Евгения Кульбачная, Екатерина Шуляк

Описание: Вера Михайловна работает заведующей отделением патологии в одном из городских родильных домов. Это очень непростая и очень ответственная работа – помогать будущим мамам произвести на свет здоровых и счастливых малышей. Тем более, что мама маме рознь – кто-то из пациенток Веры Михайловны состоит в законном браке и счастливо ждёт прибавления в семействе, кто-то желает родить ребенка несмотря на хрупкое здоровье или сопротивление родных, а кто-то очень одинок и всерьез помышляет об отказе от первенца… У всех будущих мам есть своя история – трогательная и волнительная, радостная или печальная, но обязательно полная надежды.





Доп. информация: Реклама отсутствует!





Релиз группы:: http://i1.imageban.ru/out/2013/12/25/6757870fb792b4dbe53d867619848c94.png





Все раздачи сериала: http://rutracker.org/forum/tracker.php?f=9&nm=Ой,%20Ма-моч-ки!
Сэмпл: https://cloud.mail.ru/public/0cd6afb4cb3b/%D0%9E%D0...8%21 %29%2004.mpg

Качество: DVB
Формат: MPEG
Видео кодек: MPEG2
Аудио кодек: MPEG1
Видео: MPEG2 Video 720x576 (4:3) 25.00fps ~2934 Kbps (0.283 bit/pixel)
Аудио: MPEG Audio 48000Hz 2 channels 256 Кбит/сек

MI
Общее
Полное имя : W:\Video7\Ой, Ма-моч-ки!.. (Ой, мамочки!) DVB\Ой, Ма-моч-ки!.. (Ой, мамочки!) 01.mpg
Формат : MPEG-PS
Размер файла : 1020 Мбайт
Продолжительность : 50 м.
Режим общего битрейта : Переменный
Общий поток : 2849 Кбит/сек
Библиотека кодирования : (c) 1998-2010 Womble Multimedia, Inc. / MPEG Video Wizard DVD 5.0.0.114 (01/2010) / Nov 13 2010

Видео
Идентификатор : 224 (0xE0)
Формат : MPEG Video
Версия формата : Version 2
Профиль формата : Main@Main
Параметр BVOP формата : Да
Параметр матрицы формата : Выборочная
Параметр GOP формата : Variable
Продолжительность : 50 м.
Вид битрейта : Переменный
Битрейт : 2536 Кбит/сек
Максимальный битрейт : 15,0 Мбит/сек
Ширина : 720 пикселей
Высота : 576 пикселей
Соотношение сторон : 4:3
Частота кадров : 25,000 кадров/сек
Стандарт вещания : PAL
Цветовое пространство : YUV
Субдискретизация насыщенности : 4:2:0
Битовая глубина : 8 бит
Тип развёртки : Чересстрочная
Порядок развёртки : Верхнее поле первое
Метод сжатия : С потерями
Бит/(Пиксели*Кадры) : 0.245
TimeCode_FirstFrame : 00:00:00:00
TimeCode_Source : Group of pictures header
Размер потока : 908 Мбайт (89%)
Библиотека кодирования : (c) 1998-2010 Womble Multimedia, Inc. / MPEG Video Wizard DVD 5.0.0.114 (01/2010) / Nov 13 2010

Аудио
Идентификатор : 192 (0xC0)
Формат : MPEG Audio
Версия формата : Version 1
Профиль формата : Layer 2
Продолжительность : 50 м.
Вид битрейта : Постоянный
Битрейт : 256 Кбит/сек
Каналы : 2 канала
Частота : 48,0 КГц
Метод сжатия : С потерями
Размер потока : 91,6 Мбайт (9%)


Скриншоты
http://firepic.org/?v=6.2014-05-03_c67t3a2oht2j.png
http://firepic.org/?v=6.2014-05-03_aqndx8z5poue.png
http://firepic.org/?v=6.2014-05-03_8tytk1phx90x.png
http://firepic.org/?v=6.2014-05-03_zn6ifejvsmiq.png
http://firepic.org/?v=6.2014-05-03_bd6rsqvp0k0k.png
http://firepic.org/?v=6.2014-05-03_borymrmc6hla.png
http://firepic.org/?v=6.2014-05-03_muw676l9hprx.png
http://firepic.org/?v=6.2014-05-03_a7wl68mkpax7.png
http://firepic.org/?v=6.2014-05-03_nz3va49up4rk.png
http://firepic.org/?v=6.2014-05-03_fpjm61a7xwhs.png


-------------

Внимание! Раздача ведётся путём добавления новых выпусков
При каждом добавлении создаётся новый торрент. Чтобы начать докачку нового выпуска, пользователям необходимо сделать следующее:
П остановить скачивание;
П удалить старый торрент у себя из клиента (старые выпуски удалять не надо);
П скачать новый торрент и запустить его у себя в клиенте вместо старого, при этом указать клиенту путь в старую папку куда и должно происходить скачивание новых выпусков;
П ваш клиент при запуске должен произвести хеширование (проверку) старой папки (если не производит сам - помогите ему сделать это), и будет докачивать только те выпуски, которых у вас ещё нет. Старые выпуски при этом не удаляются, а продолжают раздаваться!, Конец фильма!
П Eсли вы уже удалили старые выпуски, то предотвратить повторную закачку старых выпусков можно, отжав галочку в соответсвующих местах при запуске нового торрента.

Добавлена 1-я серия
Похожие файлы
Загрузка / Обновление
КатегорияСериалы RSS лента
Просмотров86 раз (a)
Взят0 раз (a)
Файлы4
Размер4.10 GB (4,398,743,552 байт)
Добавлен
РаздалViKa  (Искать торренты)
Участники
Участники - Загрузка / Обновление
Просматривают Просматривают Загрузка...

-†- ¿? -†-
« Предыдущая - † Страница † - Следующая »

:: Список Комментариев
Нет комментариев.

 Нет комментариев
Вам запрещенно редактировать, создать или удалять комментарии.
shpv© 2007-2014
Страничка сформирована за 0.093 секунд.
Яндекс.Метрика Rambler's Top100