скачать торрент трекер Friends
 
 Главная  •  Торренты  •  Новые релизы  •  Форум  •   •  Персоны кино  •  Правила  •  ЧаВо

Язык интерфейса
Язык интерфейса:


Привет, Гость
[15] из [15]
Введите Логин:
Введите Пароль:
Регистрация
Восстановить Пароль

Линки
АнекдотыБанкоматВсе теги / меткиДополнительные услугиТехподдержка

Главное Меню
 Главная Торренты Релизы за сегодня Персоны кино Запросы / Предложения (3) Правила ЧаВо Проверка BB кодов Топ 10 Архив новостей Прошлые опросы Форматы файлов Группы Последние комментарии Техподдержка

:: Детали раздачи
Торрент раздача является мультитрекерной — учтите, количество раздающих не будет совпадать с количеством участников на сайте (скачивание на клиентской стороне зависит от настроек uTorrent клиент программы, настройки -> Включить DHT, Обмен пирами и Поиск лок-х пиров).
Если висит надпись, пиры по нулям - не бойтесь, возможность скачать повторно торрент раздачу - есть. Попробуйте, в случае отказа - прокоментируйте или нажмите на "Позвать скачавших".

Склифосовский (Склиф) / Сезон: 3 / Серии: 1-24 из 24 (Юлия Краснова)

Скачать
Магнет
ПомощьКак скачать раздачу
Поделиться
Теги / Меткидрама, мелодрама
Постер
ОписаниеГод выпуска: 2014
Производство: Россия, Кинокомпания "Русское"
Жанр: Драма, мелодрама
Продолжительность: ~44 минуты серия
Субтитры: нет

Режиссёр: Юлия Краснова

В ролях: Максим Аверин, Мария Куликова, Дмитрий Миллер, Ольга Павловец, Лаура Кеосаян, Марина Могилевская, Андрей Барило, Владимир Жеребцов, Константин Юшкевич, Антон Эльдаров, Александр Сирин, Анна Якунина, Екатерина Травова, Александр Чернявский (III)

Описание: Любимые герои «Склифосовского» вновь возвращаются на телеэкраны. Они продолжают спасать жизни, ежедневно принимая судьбоносные решения; и, почти лишенные свободного времени, пытаются построить своё личное счастье. В 3 сезоне сериала зрителей ждет немало перемен. После ухода Зименской, в Склиф неожиданно вернется Марина Нарочинская, назначенная главврачом. Ее возвращение станет тяжелым испытанием для Брагина, теперь примерного семьянина. Немало шокирующих сюрпризов преподнесет его молодая жена, кроткая медсестра Лена...

Все раздачи сериала: http://rutracker.org/forum/tracker.php?f=9&nm=Склифосовский
Сэмпл: http://multi-up.com/967119

Качество: HDTV
Формат: TS
Видео кодек: MPEG-4 AVC
Аудио кодек: MPEG Audio
Видео: 1920х1080 (16:9), 25 fps, AVC MPEG-4 (x264), High@L4.1 ~ 5900 kbps avg, 0.114 bit/pixel
Аудио: 48 kHz, MP2, 2 ch, 256 kbps avg

MI
General
ID : 1 (0x1)
Complete name : E:\торрент\Склифосовский 3 сезон HDTV 1080p\Склифосовский 3 сезон 01.ts
Format : MPEG-TS
File size : 2.06 GiB
Duration : 45mn 35s
Overall bit rate : 6 466 Kbps
Maximum Overall bit rate : 35.5 Mbps

Video
ID : 4113 (0x1011)
Menu ID : 1 (0x1)
Format : AVC
Format/Info : Advanced Video Codec
Format profile : High@L4.1
Format settings, CABAC : Yes
Format settings, ReFrames : 3 frames
Codec ID : 27
Duration : 45mn 35s
Bit rate mode : Variable
Bit rate : 5 888 Kbps
Maximum bit rate : 40.0 Mbps
Width : 1 920 pixels
Height : 1 080 pixels
Display aspect ratio : 16:9
Frame rate : 25.000 fps
Color space : YUV
Chroma subsampling : 4:2:0
Bit depth : 8 bits
Scan type : Progressive
Bits/(Pixel*Frame) : 0.114
Stream size : 1.88 GiB (91%)

Audio
ID : 4352 (0x1100)
Menu ID : 1 (0x1)
Format : MPEG Audio
Format version : Version 1
Format profile : Layer 2
Codec ID : 4
Duration : 45mn 35s
Bit rate mode : Constant
Bit rate : 256 Kbps
Channel(s) : 2 channels
Sampling rate : 48.0 KHz
Compression mode : Lossy
Stream size : 83.5 MiB (4%)
Language : Russian

Рекламы нет

Скриншоты
http://i55.fastpic.ru/thumb/2014/0502/16/4eaf240c2a2d2fd5c8963c88470cc916.jpeg http://i55.fastpic.ru/thumb/2014/0502/71/02572e88b30decbd29d87c922daf1771.jpeg http://i55.fastpic.ru/thumb/2014/0502/5a/cef7ef89ce50f096e214afada85e6b5a.jpeg http://i56.fastpic.ru/thumb/2014/0502/57/33522c8d4c50705d642e3ea9e18b8c57.jpeg
Похожие файлы
Загрузка / Обновление
КатегорияСериалы RSS лента
Просмотров118 раз (a)
Взят4 раз (a)
Файлы24
Размер48.90 GB (52,502,632,160 байт)
Добавлен
РаздалViKa  (Искать торренты)
Участники
Участники - Загрузка / Обновление
Просматривают Просматривают Загрузка...

-†- ¿? -†-
« Предыдущая - † Страница † - Следующая »

:: Список Комментариев
Нет комментариев.

 Нет комментариев
Вам запрещенно редактировать, создать или удалять комментарии.
shpv© 2007-2014
Страничка сформирована за 1.210 секунд.
Яндекс.Метрика Rambler's Top100