скачать торрент трекер Friends
 
 Главная  •  Торренты  •  Новые релизы  •  Форум  •   •  Персоны кино  •  Правила  •  ЧаВо

Язык интерфейса
Язык интерфейса:


Привет, Гость
[15] из [15]
Введите Логин:
Введите Пароль:
Регистрация
Восстановить Пароль

Линки
АнекдотыБанкоматВсе теги / меткиДополнительные услугиТехподдержка

Главное Меню
 Главная Торренты Релизы за сегодня Персоны кино Запросы / Предложения (3) Правила ЧаВо Проверка BB кодов Топ 10 Архив новостей Прошлые опросы Форматы файлов Группы Последние комментарии Техподдержка

:: Детали раздачи
Торрент раздача является мультитрекерной — учтите, количество раздающих не будет совпадать с количеством участников на сайте (скачивание на клиентской стороне зависит от настроек uTorrent клиент программы, настройки -> Включить DHT, Обмен пирами и Поиск лок-х пиров).
Если висит надпись, пиры по нулям - не бойтесь, возможность скачать повторно торрент раздачу - есть. Попробуйте, в случае отказа - прокоментируйте или нажмите на "Позвать скачавших".

1001 (Тысяча один) / Серии: 1-4 из 4 (Александр Котт)

Скачать
Магнет
ПомощьКак скачать раздачу
Поделиться
Теги / Меткифантастика, мелодрама
Постер
ОписаниеГод выпуска: 2014
Производство: Россия, Красный квадрат кино, Студия Русский проект
Жанр: Фантастика, мелодрама
Продолжительность: ~0:45:00 серия
Субтитры: нет

Режиссёр: Александр Котт

В ролях: Саeра Сафари, Алексей Франдетти, Александр Голубков, Ёла Санько, Рамиль Сабитов, Нодар Сирадзе

Описание: Действие фильма разворачивается в двух условных "мирах", разделенных символическими воротами. Мир первый – современность, 21 век, где жизнь бьет ключом. Мир второй – некое "волшебное" пространство сказки со всеми присущими ей атрибутами – роскошными дворцами, удивительными одеждами, гаремами, интригами и волшебниками.

Все раздачи сериала: 1001 (Тысяча один)

http://i29.fastpic.ru/big/2011/1030/ea/b1cf2ef64e49d1b69670beab9a74f7ea.png

Качество: HDTVRip
Формат: AVI
Видео кодек: XviD
Аудио кодек: MP3
Видео: 720x400 (1.80:1), 25 fps, XviD build 50 ~1752 kbps avg, 0.24 bit/pixel
Аудио: 48 kHz, MPEG Layer 3, 2 ch, ~128.00 kbps avg

Сторонней рекламы нет!

MediaInfo


ОбщееПолное имя : F:\1001 (Тысяча один) HDTVRip XviD\1001 (Тысяча один) 01_серия_HDTVRip_XviD.aviФормат : AVIФормат/Информация : Audio Video InterleaveРазмер файла : 650 МбайтПродолжительность : 48 м.Общий поток : 1891 Кбит/секПрограмма кодирования : VirtualDubMod 1.5.10.3 | www.virtualdub-fr.org || (build 2550/release)Библиотека кодирования : VirtualDubMod build 2550/release

ВидеоИдентификатор : 0Формат : MPEG-4 VisualПрофиль формата : Advanced Simple@L5Параметр BVOP формата : 2Параметр QPel формата : НетПараметр GMC формата : Без точки переходаПараметр матрицы формата : Default (H.263)Идентификатор кодека : XVIDИдентификатор кодека/Подсказка : XviDПродолжительность : 48 м.Битрейт : 1753 Кбит/секШирина : 720 пикс.Высота : 400 пикс.Соотношение сторон : 16:9Частота кадров : 25,000 кадр/секЦветовое пространство : YUVПодвыборка цветности : 4:2:0Битовая глубина : 8 битТип развёртки : ПрогрессивнаяМетод сжатия : С потерямиБит/(Пиксели*Кадры) : 0.243Размер потока : 603 Мбайт (93%)Библиотека кодирования : XviD 1.2.1 (UTC 2008-12-04)

АудиоИдентификатор : 1Формат : MPEG AudioВерсия формата : Version 1Профиль формата : Layer 3Режим : Joint stereoИдентификатор кодека : 55Идентификатор кодека/Подсказка : MP3Продолжительность : 48 м.Вид битрейта : ПостоянныйБитрейт : 128 Кбит/секКаналы : 2 каналаЧастота : 48,0 КГцМетод сжатия : С потерямиРазмер потока : 44,0 Мбайт (7%)Выравнивание : Соединение по промежуткамПродолжительность промежутка : 40 мс. (1,00 видеокадр)Время предзагрузки промежутка : 504 msБиблиотека кодирования : LAME3.99rНастройки программы : -m j -V 4 -q 2 -lowpass 17 -b 128


Раздача группы: http://savepic.su/3981179.png

Отдельное спасибо [b]Kn1GhT[/b] за предоставление материала.

Внимание ! Раздача ведётся путём добавления новых серий
Внимание! Раздача ведётся путём добавления новых серий; при каждом добавлении создётся новый торрент. Чтобы начать докачку новой серии, пользователям необходимо сделать следующее:
(1) остановить скачивание,
(2) удалить старый торрент у себя из клиента (старые серии удалять не надо),
(3) скачать новый торрент и запустить его у себя в клиенте вместо старого, при этом указать клиенту путь в старую папку куда и должно происходить скачивание новых серий.
Ваш клиент при этом должен произвести хеширование (проверку) старой папки (если не производит сам - помогите ему сделать это), и будет докачивать только те серии которых у вас ещё нет. Старые серии при этом не удаляются, а продолжают раздаваться!
Eсли вы уже удалили старые серии, то предотвратить повторную закачку старых серий можно, отжав галочку в соответсвующих местах при запуске нового торрента. По возможности, желательно не удалять старые серии как можно дольше чтобы релизёр не столько продолжал раздавать старые серии, а смог сконцентрироваться на новых.

ВНИМАНИЕ! ТОРРЕНТ ПЕРЕЗАЛИТ! ДОБАВЛЕНА 3-ая - 4-ая СЕРИИ!

Скриншоты
http://i56.fastpic.ru/thumb/2014/0502/40/64a1f1362d479962e6efc6a338e54d40.jpeg http://i56.fastpic.ru/thumb/2014/0502/43/7a8748ded7feb41553e4707953d31d43.jpeg http://i56.fastpic.ru/thumb/2014/0502/d2/b136e034288d57484d8b4af55dc2f5d2.jpeg http://i56.fastpic.ru/thumb/2014/0502/f3/e2f5a687454585f721a71b6b2260b3f3.jpeg

http://i17.fastpic.ru/big/2011/0302/93/84d6588c7f6e1cc66b53d3103e74fa93.gif[/img][img]http://s60.radikal.ru/i170/1007/6a/664e8d89abdf.gif
Похожие файлы
Загрузка / Обновление
КатегорияСериалы RSS лента
Просмотров90 раз (a)
Взят0 раз (a)
Файлы4
Размер2.54 GB (2,726,696,960 байт)
Добавлен
РаздалViKa  (Искать торренты)
Участники
Участники - Загрузка / Обновление
Просматривают Просматривают Загрузка...

-†- ¿? -†-
« Предыдущая - † Страница † - Следующая »

:: Список Комментариев
Нет комментариев.

 Нет комментариев
Вам запрещенно редактировать, создать или удалять комментарии.
shpv© 2007-2014
Страничка сформирована за 0.955 секунд.
Яндекс.Метрика Rambler's Top100