скачать торрент трекер Friends
 
 Главная  •  Торренты  •  Новые релизы  •  Форум  •   •  Персоны кино  •  Правила  •  ЧаВо

Язык интерфейса
Язык интерфейса:


Привет, Гость
[15] из [15]
Введите Логин:
Введите Пароль:
Регистрация
Восстановить Пароль

Линки
АнекдотыБанкоматВсе теги / меткиДополнительные услугиТехподдержка

Главное Меню
 Главная Торренты Релизы за сегодня Персоны кино Запросы / Предложения (3) Правила ЧаВо Проверка BB кодов Топ 10 Архив новостей Прошлые опросы Форматы файлов Группы Последние комментарии Техподдержка

:: Детали раздачи
Торрент раздача является мультитрекерной — учтите, количество раздающих не будет совпадать с количеством участников на сайте (скачивание на клиентской стороне зависит от настроек uTorrent клиент программы, настройки -> Включить DHT, Обмен пирами и Поиск лок-х пиров).
Если висит надпись, пиры по нулям - не бойтесь, возможность скачать повторно торрент раздачу - есть. Попробуйте, в случае отказа - прокоментируйте или нажмите на "Позвать скачавших".

Опасная любовь / Серии: 1-4 из 4 (Кирилл Капица)

Скачать
Магнет
ПомощьКак скачать раздачу
Поделиться
Теги / Меткибоевик, криминал, детектив
Постер
ОписаниеГод выпуска: 2014
Производство: Россия, "Star Media"
Жанр: Боевик, криминал, детектив
Продолжительность: 00:45:00
Субтитры: нет

Режиссёр:Кирилл Капица

В ролях: Игорь Лифанов, Анна Сырбу, Сергей Воробьёв, Владимир Щербаков, Игорь Петрусенко, Владимир Осадчий, Елена Турбал, Екатерина Кистень, Станислав Москвин, Игорь Гнездилов, Кирилл Капица, Евгений Ефремов, Андрей Мостренко, Сергей Деревянко, Дмитрий Гаврилов, Владимир Горянский, Дмитрий Сова, Вячеслав Довженко, Сергей Бондарчук, Игорь Мельников, Владимир Заднепровский, Юрий Высоцкий, Алексей Дребезгов, Александра Олейник, Игорь Арнаутов, Ада Роговцева, Григорий Боковенко

Описание: Банда Ивана Золотарева грабит только нечестных на руку бизнесменов, зарабатывающих свои деньги при помощи криминала. Члены банды считают себя современными "робингудами", они не просто грабят, а придумывают целое театральное действие, откровенно развлекаясь. У них есть принцип - никаких убийств, не при каких обстоятельствах. Иван - хитрый и смекалистый бандит, благодаря его выдумкам и осторожности, полиция никак не может напасть на их след . Но однажды случился сбой в налаженной схеме. При ограблении бизнесмена, один из членов банды застрелил телохранителя. В банде начался разлад... Дальше-больше. Один из бандитов украл деньги, принадлежавшие мафии, контролирующей продажу оружия в регионе. Во время погони он был случайно убит. Никто не знает, где он спрятал украденные деньги. Один только шанс, что об этом может знать вдова убитого. Иван знакомится с ней и неожиданно для себя влюбляется. И кажется - это взаимно. А полиция тем временем нападает на след банды...

Все раздачи сериала:Опасная любовь

http://i29.fastpic.ru/big/2011/1030/ea/b1cf2ef64e49d1b69670beab9a74f7ea.png

Качество: SATRip
Формат: AVI
Видео кодек: XviD
Аудио кодек:MP3
Видео: 720x400 (1.80:1), 25 fps, XviD MPEG-4 ~1802 kbps avg, 0.25 bit/pixel
Аудио: 48 kHz, MPEG Layer 3, 2 ch, ~128.00 kbps avg

Сторонней рекламы нет!

MI


ОбщееПолное имя : F:\Опасная любовь SATRip XviD\Опасная любовь 01_серия_SATRip_XviD.aviФормат : AVIФормат/Информация : Audio Video InterleaveРазмер файла : 605 МбайтПродолжительность : 43 м.Общий поток : 1936 Кбит/секПрограмма кодирования : TMPGEnc Video Mastering Works 5 Version. 5.0.6.38Библиотека кодирования : TMPGEnc Video Mastering Works 5 Version. 5.0.6.38

ВидеоИдентификатор : 0Формат : MPEG-4 VisualПрофиль формата : Advanced Simple@L5Параметр BVOP формата : 2Параметр QPel формата : НетПараметр GMC формата : Без точки переходаПараметр матрицы формата : Default (MPEG)Идентификатор кодека : XVIDИдентификатор кодека/Подсказка : XviDПродолжительность : 43 м.Битрейт : 1800 Кбит/секШирина : 720 пикс.Высота : 400 пикс.Соотношение сторон : 16:9Частота кадров : 25,000 кадр/секЦветовое пространство : YUVПодвыборка цветности : 4:2:0Битовая глубина : 8 битТип развёртки : ПрогрессивнаяМетод сжатия : С потерямиБит/(Пиксели*Кадры) : 0.250Размер потока : 563 Мбайт (93%)Библиотека кодирования : XviD 64

АудиоИдентификатор : 1Формат : MPEG AudioВерсия формата : Version 1Профиль формата : Layer 3Режим : Joint stereoИдентификатор кодека : 55Идентификатор кодека/Подсказка : MP3Продолжительность : 43 м.Вид битрейта : ПостоянныйБитрейт : 128 Кбит/секКаналы : 2 каналаЧастота : 48,0 КГцМетод сжатия : С потерямиРазмер потока : 40,0 Мбайт (7%)Выравнивание : Соединение по промежуткамПродолжительность промежутка : 250 мс. (6,25 видеокадров)Время предзагрузки промежутка : 192 ms


Раздача группы: http://savepic.su/3981179.png

Отдельное спасибо [b]ramzesII[/b] за предоставление материала.

Внимание ! Раздача ведётся путём добавления новых серий
Внимание! Раздача ведётся путём добавления новых серий; при каждом добавлении создётся новый торрент. Чтобы начать докачку новой серии, пользователям необходимо сделать следующее:
(1) остановить скачивание,
(2) удалить старый торрент у себя из клиента (старые серии удалять не надо),
(3) скачать новый торрент и запустить его у себя в клиенте вместо старого, при этом указать клиенту путь в старую папку куда и должно происходить скачивание новых серий.
Ваш клиент при этом должен произвести хеширование (проверку) старой папки (если не производит сам - помогите ему сделать это), и будет докачивать только те серии которых у вас ещё нет. Старые серии при этом не удаляются, а продолжают раздаваться!
Eсли вы уже удалили старые серии, то предотвратить повторную закачку старых серий можно, отжав галочку в соответсвующих местах при запуске нового торрента. По возможности, желательно не удалять старые серии как можно дольше чтобы релизёр не столько продолжал раздавать старые серии, а смог сконцентрироваться на новых.

ВНИМАНИЕ! ТОРРЕНТ ПЕРЕЗАЛИТ! ДОБАВЛЕНА 4-ая СЕРИИ!

Скриншоты
http://i55.fastpic.ru/thumb/2014/0428/d7/00edbff22d239fcfc1d47dbc4cc4a4d7.jpeg http://i55.fastpic.ru/thumb/2014/0428/a1/754192fd72d9d9f164b7a57a7de5aba1.jpeg http://i55.fastpic.ru/thumb/2014/0428/b6/12cd4c4dc396b0f39f762dc2a55907b6.jpeg http://i55.fastpic.ru/thumb/2014/0428/cc/e8127a67ffcd0326346f8bb4bf7651cc.jpeg

http://i17.fastpic.ru/big/2011/0302/93/84d6588c7f6e1cc66b53d3103e74fa93.gif[/img][img]http://s60.radikal.ru/i170/1007/6a/664e8d89abdf.gif
Похожие файлы
Загрузка / Обновление
КатегорияСериалы RSS лента
Просмотров85 раз (a)
Взят0 раз (a)
Файлы4
Размер2.40 GB (2,577,876,072 байт)
Добавлен
РаздалViKa  (Искать торренты)
Участники
Участники - Загрузка / Обновление
Просматривают Просматривают Загрузка...

-†- ¿? -†-
« Предыдущая - † Страница † - Следующая »

:: Список Комментариев
Нет комментариев.

 Нет комментариев
Вам запрещенно редактировать, создать или удалять комментарии.
shpv© 2007-2014
Страничка сформирована за 0.060 секунд.
Яндекс.Метрика Rambler's Top100