скачать торрент трекер Friends
 
 Главная  •  Торренты  •  Новые релизы  •  Форум  •   •  Персоны кино  •  Правила  •  ЧаВо

Язык интерфейса
Язык интерфейса:


Привет, Гость
[15] из [15]
Введите Логин:
Введите Пароль:
Регистрация
Восстановить Пароль

Линки
АнекдотыБанкоматВсе теги / меткиДополнительные услугиТехподдержка

Главное Меню
 Главная Торренты Релизы за сегодня Персоны кино Запросы / Предложения (3) Правила ЧаВо Проверка BB кодов Топ 10 Архив новостей Прошлые опросы Форматы файлов Группы Последние комментарии Техподдержка

:: Детали раздачи
Торрент раздача является мультитрекерной — учтите, количество раздающих не будет совпадать с количеством участников на сайте (скачивание на клиентской стороне зависит от настроек uTorrent клиент программы, настройки -> Включить DHT, Обмен пирами и Поиск лок-х пиров).
Если висит надпись, пиры по нулям - не бойтесь, возможность скачать повторно торрент раздачу - есть. Попробуйте, в случае отказа - прокоментируйте или нажмите на "Позвать скачавших".

Зимний вальс / Серии 1-4 из 4 (Вадим Арапов, Вячеслав Падалка)

Скачать
Магнет
ПомощьКак скачать раздачу
Поделиться
Теги / Меткимелодрама
Постер
ОписаниеВыпущено: Россия, Студия "Паламеда"
Жанр: мелодрама
Год выпуска: 2013
Продолжительность: 00:45:00
Субтитры: нет

Режиссер: Вадим Арапов, Вячеслав Падалка
В ролях: Анна Полупанова, Дмитрий Орлов (III), Алёна Ивченко, Святослав Астрамович, Анна Носатова, Геннадий Гарбук, Ольга Клебанович, Алексия Фроемчук, Владимир Божков, Олег Ткачёв, Елена Акулёнок, Олег Вебер, Андрей Карако, Юлианна Михневич, Руслан Чернецкий, Валерий Шушкевич

Описание: У Анны хорошая работа, любящий муж и прекрасная дочка. Но все рушится в одно мгновенье, когда ей переходит дорогу лучшая подруга… С работы Анну с треском увольняют, муж уходит, и кажется, что ей, оставшейся одной с маленькой дочерью, помощи ждать неоткуда.Не все благополучно и в семье Владимира, подполковника в отставке. Потерявшая ребенка пара мучительно расстается. Но невзгоды и предательства не ломают героев. И их случайная встреча дает надежду на хоть и позднюю, но такую настоящую любовь.

http://i26.fastpic.ru/big/2012/1007/c2/3d4ebe5afcc90878620a21afe0b7e2c2.png http://www.kinopoisk.ru/rating/734858.gif

Все серии идут подряд одним файлом. Общее время 03:01:14
Все раздачи сериала

Автор рипа / записи: fanatus
Исходник: Запись с телеканала РОССИЯ HD
Качество: HDTVRip 720p
Формат: MKV
Видео кодек: H.264
Аудио кодек: AC3

Видео: MPEG-4 AVC, 3536 kbps , 1280x720 (16:9), 25.000 fps, 0.153 bit/pixel
Аудио: AC3, 2 ch, 48 kHz, 192 kbps

MediaInfo
General
Unique ID : 192372253439075784058794796159731048391 (0x90B98C5FCC34FDE6B0F5EAAC6B451FC7)
Complete name : F:\Zimnij_vals.2013.x264.HDTVRip.720p.fanatus.mkv
Format : Matroska
Format version : Version 2
File size : 4.72 GiB
Duration : 3h 1mn
Overall bit rate : 3 729 Kbps
Movie name : Zimnij vals (2013) - fanatus
Encoded date : UTC 2014-04-26 18:21:19
Writing application : mkvmerge v3.4.0 ('Rapunzel') сборка от May 15 2010 09:38:20
Writing library : libebml v0.8.0 + libmatroska v0.9.0

Video
ID : 1
Format : AVC
Format/Info : Advanced Video Codec
Format profile : High@L4.1
Format settings, CABAC : Yes
Format settings, ReFrames : 8 frames
Codec ID : V_MPEG4/ISO/AVC
Duration : 3h 1mn
Bit rate : 3 536 Kbps
Width : 1 280 pixels
Height : 720 pixels
Display aspect ratio : 16:9
Frame rate : 25.000 fps
Color space : YUV
Chroma subsampling : 4:2:0
Bit depth : 8 bits
Scan type : Progressive
Bits/(Pixel*Frame) : 0.153
Stream size : 4.38 GiB (93%)
Title : Zimnij vals (2013) HDTVRip 720p
Writing library : x264 core 142 r2409 d6b4e63
Encoding settings : cabac=1 / ref=8 / deblock=1:-2:-2 / analyse=0x3:0x113 / me=umh / subme=10 / psy=1 / psy_rd=1.00:0.10 / mixed_ref=1 / me_range=32 / chroma_me=1 / trellis=2 / 8x8dct=1 / cqm=0 / deadzone=21,11 / fast_pskip=0 / chroma_qp_offset=-3 / threads=16 / lookahead_threads=2 / sliced_threads=0 / nr=0 / decimate=0 / interlaced=0 / bluray_compat=0 / constrained_intra=0 / bframes=8 / b_pyramid=2 / b_adapt=2 / b_bias=0 / direct=3 / weightb=1 / open_gop=0 / weightp=2 / keyint=250 / keyint_min=25 / scenecut=40 / intra_refresh=0 / rc=2pass / mbtree=0 / bitrate=3536 / ratetol=1.0 / qcomp=0.65 / qpmin=0 / qpmax=69 / qpstep=4 / cplxblur=20.0 / qblur=0.5 / ip_ratio=1.40 / pb_ratio=1.30 / aq=1:0.90
Language : Russian
Default : Yes
Forced : No

Audio
ID : 2
Format : AC-3
Format/Info : Audio Coding 3
Mode extension : CM (complete main)
Format settings, Endianness : Big
Codec ID : A_AC3
Duration : 3h 1mn
Bit rate mode : Constant
Bit rate : 192 Kbps
Channel(s) : 2 channels
Channel positions : Front: L R
Sampling rate : 48.0 KHz
Bit depth : 16 bits
Compression mode : Lossy
Stream size : 249 MiB (5%)
Language : Russian
Default : Yes
Forced : No


Скриншот c названием фильма
http://radikal.ru/F/i023.radikal.ru/1405/d3/9c795d463d3a.png



Скриншоты
http://radikal.ru/F/s020.radikal.ru/i717/1405/b6/ec3be2076abe.png
http://radikal.ru/F/s006.radikal.ru/i214/1405/63/d5d5cbbcd8d4.png
http://radikal.ru/F/s58.radikal.ru/i160/1405/3c/42e300c199c3.png
http://radikal.ru/F/s020.radikal.ru/i717/1405/ca/8ca20eb9ec5c.png
http://radikal.ru/F/s003.radikal.ru/i204/1405/a9/4d7e86ff8873.png
http://radikal.ru/F/s020.radikal.ru/i710/1405/3e/1872ff98c0b7.png
http://radikal.ru/F/s001.radikal.ru/i196/1405/5f/9ec35f50d0e5.png
http://radikal.ru/F/i016.radikal.ru/1405/d5/19f442e546c6.png
http://radikal.ru/F/s43.radikal.ru/i101/1405/8f/9f51aa84c9cc.png
http://radikal.ru/F/i017.radikal.ru/1405/e8/f4ffea60a7b7.png
Скриншоты
Похожие файлы
Загрузка / Обновление
КатегорияСериалы RSS лента
Просмотров71 раз (a)
Взят0 раз (a)
Файлы1
Размер4.72 GB (5,068,855,014 байт)
Добавлен
РаздалViKa  (Искать торренты)
Участники
Участники - Загрузка / Обновление
Просматривают Просматривают Загрузка...

-†- ¿? -†-
« Предыдущая - † Страница † - Следующая »

:: Список Комментариев
Нет комментариев.

 Нет комментариев
Вам запрещенно редактировать, создать или удалять комментарии.
shpv© 2007-2014
Страничка сформирована за 1.841 секунд.
Яндекс.Метрика Rambler's Top100