скачать торрент трекер Friends
 
 Главная  •  Торренты  •  Новые релизы  •  Форум  •   •  Персоны кино  •  Правила  •  ЧаВо

Язык интерфейса
Язык интерфейса:


Привет, Гость
[15] из [15]
Введите Логин:
Введите Пароль:
Регистрация
Восстановить Пароль

Линки
АнекдотыБанкоматВсе теги / меткиДополнительные услугиТехподдержка

Главное Меню
 Главная Торренты Релизы за сегодня Персоны кино Запросы / Предложения (3) Правила ЧаВо Проверка BB кодов Топ 10 Архив новостей Прошлые опросы Форматы файлов Группы Последние комментарии Техподдержка

:: Детали раздачи
Торрент раздача является мультитрекерной — учтите, количество раздающих не будет совпадать с количеством участников на сайте (скачивание на клиентской стороне зависит от настроек uTorrent клиент программы, настройки -> Включить DHT, Обмен пирами и Поиск лок-х пиров).
Если висит надпись, пиры по нулям - не бойтесь, возможность скачать повторно торрент раздачу - есть. Попробуйте, в случае отказа - прокоментируйте или нажмите на "Позвать скачавших".

Врачиха / Серии: 1-8 из 8 (Екатерина Двигубская)

Скачать
Магнет
ПомощьКак скачать раздачу
Поделиться
Теги / Меткимелодрама
Постер
ОписаниеГод выпуска: 2014
Производство: Россия, Кинокомпания "Студия Паламеда", Продюсерский центр "Фабула"
Жанр: Мелодрама
Продолжительность: ~00:45:00
Субтитры: нет

Режиссёр: Екатерина Двигубская

В ролях: Полина Стрельникова, Андрей Фролов, Елена Коренева, Олег Алмазов, Татьяна Колганова

Описание: Кате Захаровой прочат блестящее музыкальное будущее. Но в один день все ее мечты рушатся, как карточный домик. В результате аферы, подстроенной риелтором, она остается без денег и крыши над головой, а тут еще маму разбивает инсульт. Ради спасения матери Катя оставляет музыку и становится врачом. Но мама умирает, и тогда Катя решает отомстить человеку, разрушившему ее жизнь. В результате долгих поисков она оказывается в деревне, где встречает свою любовь. Кажется, судьба вновь улыбается ей, но неожиданно Катя узнает такое, что не только лишает ее надежды на счастье, но и вообще выбивает почву из-под ног...

Все раздачи сериала: Врачиха

http://i29.fastpic.ru/big/2011/1030/ea/b1cf2ef64e49d1b69670beab9a74f7ea.png

Качество: HDTV 1080i
Формат: TS
Видео кодек: H.264
Аудио кодек: MPEG Audio
Видео: MPEG4 Video (H264) 1920x1080, ~ 5866 kbps, 25.00fps 0.113 bit/pixel
Аудио: MPEG Audio, 2 канала, 48,0 КГц, ~256 kbps

Сторонней рекламы нет!

MediaInfo


ОбщееИдентификатор : 1 (0x1)Полное имя : F:\Врачиха HDTV 1080i\Врачиха 01_02_серия_HDTV_1080i.tsФормат : MPEG-TSРазмер файла : 3,84 ГбайтПродолжительность : 1 ч. 25 м.Общий поток : 6443 Кбит/секМаксимальный общий битрейт : 35,5 Мбит/сек

ВидеоИдентификатор : 4113 (0x1011)Идентификатор меню : 1 (0x1)Формат : AVCФормат/Информация : Advanced Video CodecПрофиль формата : High@L4.1Параметр CABAC формата : ДаПараметр ReFrames формата : 3 кадраИдентификатор кодека : 27Продолжительность : 1 ч. 25 м.Вид битрейта : ПеременныйБитрейт : 5866 Кбит/секМаксимальный битрейт : 40,0 Мбит/секШирина : 1920 пикс.Высота : 1080 пикс.Соотношение сторон : 16:9Частота кадров : 25,000 кадр/секЦветовое пространство : YUVПодвыборка цветности : 4:2:0Битовая глубина : 8 битТип развёртки : ПрогрессивнаяБит/(Пиксели*Кадры) : 0.113Размер потока : 3,50 Гбайт (91%)

АудиоИдентификатор : 4352 (0x1100)Идентификатор меню : 1 (0x1)Формат : MPEG AudioВерсия формата : Version 1Профиль формата : Layer 2Идентификатор кодека : 4Продолжительность : 1 ч. 25 м.Вид битрейта : ПостоянныйБитрейт : 256 Кбит/секКаналы : 2 каналаЧастота : 48,0 КГцМетод сжатия : С потерямиРазмер потока : 156 Мбайт (4%)Язык : Russian


Раздача группы: http://static.rutracker.org/ranks/rg_humor.gif

Отдельное спасибо [b]nikolspup[/b] за предоставление материала.

Внимание ! Раздача ведётся путём добавления новых серий
Внимание! Раздача ведётся путём добавления новых серий; при каждом добавлении создётся новый торрент. Чтобы начать докачку новой серии, пользователям необходимо сделать следующее:
(1) остановить скачивание,
(2) удалить старый торрент у себя из клиента (старые серии удалять не надо),
(3) скачать новый торрент и запустить его у себя в клиенте вместо старого, при этом указать клиенту путь в старую папку куда и должно происходить скачивание новых серий.
Ваш клиент при этом должен произвести хеширование (проверку) старой папки (если не производит сам - помогите ему сделать это), и будет докачивать только те серии которых у вас ещё нет. Старые серии при этом не удаляются, а продолжают раздаваться!
Eсли вы уже удалили старые серии, то предотвратить повторную закачку старых серий можно, отжав галочку в соответсвующих местах при запуске нового торрента. По возможности, желательно не удалять старые серии как можно дольше чтобы релизёр не столько продолжал раздавать старые серии, а смог сконцентрироваться на новых.

ВНИМАНИЕ! ТОРРЕНТ ПЕРЕЗАЛИТ! ДОБАВЛЕНА 5-ая - 8-ая СЕРИЯ!

Скриншоты
http://i55.fastpic.ru/thumb/2014/0502/fa/3949651ab1b137cf6ef2a82c8af767fa.jpeg http://i55.fastpic.ru/thumb/2014/0502/13/87d1c9471ab31384594182e7c73d5313.jpeg http://i55.fastpic.ru/thumb/2014/0502/c3/7979f59ef8765f52f0042ec6fc6ef0c3.jpeg http://i55.fastpic.ru/thumb/2014/0502/d5/6134d52622480a988b7f83045e4467d5.jpeg

http://i17.fastpic.ru/big/2011/0302/93/84d6588c7f6e1cc66b53d3103e74fa93.gif[/img][img]http://s60.radikal.ru/i170/1007/6a/664e8d89abdf.gif
Похожие файлы
Загрузка / Обновление
КатегорияСериалы RSS лента
Просмотров73 раз (a)
Взят0 раз (a)
Файлы4
Размер16.27 GB (17,472,281,960 байт)
Добавлен
РаздалViKa  (Искать торренты)
Участники
Участники - Загрузка / Обновление
Просматривают Просматривают Загрузка...

-†- ¿? -†-
« Предыдущая - † Страница † - Следующая »

:: Список Комментариев
Нет комментариев.

 Нет комментариев
Вам запрещенно редактировать, создать или удалять комментарии.
shpv© 2007-2014
Страничка сформирована за 0.064 секунд.
Яндекс.Метрика Rambler's Top100