скачать торрент трекер Friends
 
 Главная  •  Торренты  •  Новые релизы  •  Форум  •   •  Персоны кино  •  Правила  •  ЧаВо

Язык интерфейса
Язык интерфейса:


Привет, Гость
[15] из [15]
Введите Логин:
Введите Пароль:
Регистрация
Восстановить Пароль

Линки
АнекдотыБанкоматВсе теги / меткиДополнительные услугиТехподдержка

Главное Меню
 Главная Торренты Релизы за сегодня Персоны кино Запросы / Предложения (3) Правила ЧаВо Проверка BB кодов Топ 10 Архив новостей Прошлые опросы Форматы файлов Группы Последние комментарии Техподдержка

:: Детали раздачи
Торрент раздача является мультитрекерной — учтите, количество раздающих не будет совпадать с количеством участников на сайте (скачивание на клиентской стороне зависит от настроек uTorrent клиент программы, настройки -> Включить DHT, Обмен пирами и Поиск лок-х пиров).
Если висит надпись, пиры по нулям - не бойтесь, возможность скачать повторно торрент раздачу - есть. Попробуйте, в случае отказа - прокоментируйте или нажмите на "Позвать скачавших".

Старшая сестра / Серии 1-4 из 4 (Фархот Абдуллаев)

Скачать
Магнет
ПомощьКак скачать раздачу
Поделиться
Теги / Меткимелодрама
Постер
ОписаниеВыпущено: Россия, ООО студия "Герион"
Жанр: мелодрама
Год выпуска: 2013
Продолжительность: 00:45:00
Субтитры: нет

Режиссер: Фархот Абдуллаев
В ролях: Дарья Михайлова, Сергей Угрюмов, Анна Чурина, Андрей Дударев, Маша Мацель, Никита Степанов, Максим Дубовский, Владимир Воронков, Александр Абрамович, Виктор Рыбчинский, Виктор Манаев, Виталий Новиков, Зинаида Зубкова, Владислав Бохан, Никита Лубенько, Игорь Вепшковский, Роман Дервоед, Сергей Широчин, Александр Кашперов

Описание: Любить героя — тяжелый труд, иногда непосильный. Это должна понимать каждая женщина, чей возлюбленный выбрал для себя военное поприще. Быть готовой большую часть времени провести в одиночестве и страхе за жизнь близкого человека. Отпустить его на эту трудную мужскую работу, не жалея себя и его, не задавая вопросов. Именно такую жизнь выбрала для себя Лида, скромная учительница английского языка в небольшом провинциальном городе. Она ведет уроки, выкраивает из скудного семейного бюджета средства, чтобы обуть-одеть дочку, вступающую в самый сложный подростковый возраст, и ждет мужа с войны. Ее старшая сестра Надя не в пример успешнее, хоть она и одинока. Надя живет в столице, делает карьеру как ученый. На работе ее ценят. И с сыном — уже старшеклассником, — кажется, у нее полное взаимопонимание. Все меняется в один день, в одном бою, случившемся в конце 90-х далеко на юге, в горах Дагестана…

http://i26.fastpic.ru/big/2012/1007/c2/3d4ebe5afcc90878620a21afe0b7e2c2.png http://www.kinopoisk.ru/rating/817745.gif

Все раздачи сериала

Автор рипа / записи: fanatus
Исходник: Запись с телеканала РОССИЯ HD
Качество: HDTVRip 720p
Формат: MKV
Видео кодек: H.264
Аудио кодек: AC3

Видео: MPEG-4 AVC, 3286 kbps , 1280x720 (16:9), 25.000 fps, 0.143 bit/pixel
Аудио: AC3, 2 ch, 48 kHz, 192 kbps

MediaInfo
General
Unique ID : 247962254163810380548937525598116142371 (0xBA8BCB047C22352C84107DEFDD1C5D23)
Complete name : F:\Starshaja_sestra.(1-4.seriji.iz.4).2013.x264.HDTVRip.720p.fanatus\3-4_serija.mkv
Format : Matroska
Format version : Version 2
File size : 2.19 GiB
Duration : 1h 29mn
Overall bit rate : 3 479 Kbps
Movie name : Starshaja sestra (2013) - fanatus
Encoded date : UTC 2014-05-04 10:14:16
Writing application : mkvmerge v3.4.0 ('Rapunzel') сборка от May 15 2010 09:38:20
Writing library : libebml v0.8.0 + libmatroska v0.9.0

Video
ID : 1
Format : AVC
Format/Info : Advanced Video Codec
Format profile : High@L4.1
Format settings, CABAC : Yes
Format settings, ReFrames : 8 frames
Codec ID : V_MPEG4/ISO/AVC
Duration : 1h 29mn
Bit rate : 3 286 Kbps
Width : 1 280 pixels
Height : 720 pixels
Display aspect ratio : 16:9
Frame rate : 25.000 fps
Color space : YUV
Chroma subsampling : 4:2:0
Bit depth : 8 bits
Scan type : Progressive
Bits/(Pixel*Frame) : 0.143
Stream size : 2.02 GiB (92%)
Title : 3-4 serija
Writing library : x264 core 142 r2409 d6b4e63
Encoding settings : cabac=1 / ref=8 / deblock=1:-2:-2 / analyse=0x3:0x113 / me=umh / subme=10 / psy=1 / psy_rd=1.00:0.10 / mixed_ref=1 / me_range=32 / chroma_me=1 / trellis=2 / 8x8dct=1 / cqm=0 / deadzone=21,11 / fast_pskip=0 / chroma_qp_offset=-3 / threads=16 / lookahead_threads=2 / sliced_threads=0 / nr=0 / decimate=0 / interlaced=0 / bluray_compat=0 / constrained_intra=0 / bframes=8 / b_pyramid=2 / b_adapt=2 / b_bias=0 / direct=3 / weightb=1 / open_gop=0 / weightp=2 / keyint=250 / keyint_min=25 / scenecut=40 / intra_refresh=0 / rc=2pass / mbtree=0 / bitrate=3286 / ratetol=1.0 / qcomp=0.65 / qpmin=0 / qpmax=69 / qpstep=4 / cplxblur=20.0 / qblur=0.5 / ip_ratio=1.40 / pb_ratio=1.30 / aq=1:0.90
Language : Russian
Default : Yes
Forced : No

Audio
ID : 2
Format : AC-3
Format/Info : Audio Coding 3
Mode extension : CM (complete main)
Format settings, Endianness : Big
Codec ID : A_AC3
Duration : 1h 29mn
Bit rate mode : Constant
Bit rate : 192 Kbps
Channel(s) : 2 channels
Channel positions : Front: L R
Sampling rate : 48.0 KHz
Bit depth : 16 bits
Compression mode : Lossy
Stream size : 124 MiB (6%)
Language : Russian
Default : Yes
Forced : No


Скриншот c названием фильма
http://radikal.ru/F/i062.radikal.ru/1405/04/62271ece3d89.png



Скриншоты
http://radikal.ru/F/s018.radikal.ru/i513/1405/5c/e8b48b187e06.png
http://radikal.ru/F/s020.radikal.ru/i706/1405/c3/4e17c7f4b155.png
http://radikal.ru/F/s57.radikal.ru/i158/1405/5e/c8e21f9c1393.png
http://radikal.ru/F/s019.radikal.ru/i628/1405/a9/52a4219f4e19.png
http://radikal.ru/F/s020.radikal.ru/i717/1405/2a/94bcd74697a9.png
http://radikal.ru/F/s020.radikal.ru/i718/1405/a3/3ece2bf6a197.png
http://radikal.ru/F/s019.radikal.ru/i605/1405/97/3f597ffec825.png
http://radikal.ru/F/s57.radikal.ru/i158/1405/de/96fdfb4d2b8c.png
http://radikal.ru/F/i047.radikal.ru/1405/ed/f928a58a806b.png
http://radikal.ru/F/s020.radikal.ru/i717/1405/f5/f69b733fc861.png
Скриншоты
Похожие файлы
Загрузка / Обновление
КатегорияСериалы RSS лента
Просмотров74 раз (a)
Взят0 раз (a)
Файлы2
Размер4.37 GB (4,689,157,850 байт)
Добавлен
РаздалViKa  (Искать торренты)
Участники
Участники - Загрузка / Обновление
Просматривают Просматривают Загрузка...

-†- ¿? -†-
« Предыдущая - † Страница † - Следующая »

:: Список Комментариев
Нет комментариев.

 Нет комментариев
Вам запрещенно редактировать, создать или удалять комментарии.
shpv© 2007-2014
Страничка сформирована за 0.280 секунд.
Яндекс.Метрика Rambler's Top100