скачать торрент трекер Friends
 
 Главная  •  Торренты  •  Новые релизы  •  Форум  •   •  Персоны кино  •  Правила  •  ЧаВо

Язык интерфейса
Язык интерфейса:


Привет, Гость
[15] из [15]
Введите Логин:
Введите Пароль:
Регистрация
Восстановить Пароль

Линки
АнекдотыБанкоматВсе теги / меткиДополнительные услугиТехподдержка

Главное Меню
 Главная Торренты Релизы за сегодня Персоны кино Запросы / Предложения (3) Правила ЧаВо Проверка BB кодов Топ 10 Архив новостей Прошлые опросы Форматы файлов Группы Последние комментарии Техподдержка

:: Детали раздачи
Торрент раздача является мультитрекерной — учтите, количество раздающих не будет совпадать с количеством участников на сайте (скачивание на клиентской стороне зависит от настроек uTorrent клиент программы, настройки -> Включить DHT, Обмен пирами и Поиск лок-х пиров).
Если висит надпись, пиры по нулям - не бойтесь, возможность скачать повторно торрент раздачу - есть. Попробуйте, в случае отказа - прокоментируйте или нажмите на "Позвать скачавших".

Тихая охота / Серии: 1-30 из 30 (Сергей Артимович, Владимир Штерянов)

Скачать
Магнет
ПомощьКак скачать раздачу
Поделиться
Теги / Меткидетектив, криминальный фильм
Постер
ОписаниеГод выпуска: 2014
Производство: "Star Media"
Жанр: Детектив, криминальный фильм
Продолжительность: ~0:45:00 серия
Субтитры: нет

Режиссёр: Сергей Артимович, Владимир Штерянов

В ролях: Максим Дрозд, Павел Баршак, Владимир Стержаков, Павел Трубинер, Елена Радевич, Микаэл Джанибекян, Александр Тютин, Александр Цуркан, Максим Емельянов, Геннадий Матвеев, Евгений Мундум, Михаил Салин, Бесо Гатаев, Екатерина Крупенина, Максим Артамонов, Сергей Тодоров, Сергей Огурцов, Анна Зайцева, Анна Масальская, Сергей Сосновский, Иван Непомнящий, Венчислав Хотяновский, Дарья Повереннова, Олег Морозов, Игорь Литовкин, Максим Левикин, Игорь Поселенов, Роман Синицын, Фаридуншо Рахматуллоев, Михаил Чепуров, Александр Шаршов, Дмитрий Воронин, Сергей Комаров, Алла Музалёва, Кристина Рубан, Владимир Кебин, Шухрат Курбанов, Артем Манукян, Дарья Спирина, Сергей Бачурский

Описание: Сериал о работе одного из подразделений криминальной полиции – отдела уголовного розыска по борьбе с карманными кражами. Главные герои – Ярослав Широков, Семён Хаимович Фельдман, Дмитрий Метельский и Наталья Вольская. На профессиональном сленге их называют «тихарями», а охотятся они за представителями высшей касты воровского дела – за щипачами. Карманники работают тихо, вычисляют в толпе жертву и с филигранной точностью забирают у нее все «ненужное» — кошельки, телефоны, украшения. И ловить этих «ювелиров» должны не менее профессиональные люди. Щипачи, борсеточники, марвихеры, ширмачи, трясуны, писари, рыболовы, дубилы, резинщики, ломщики, кроты, театралы — далеко не полный список тех, с кем ежедневно приходится сталкиваться «тихарям»

Все раздачи сериала: Тихая охота

http://i29.fastpic.ru/big/2011/1030/ea/b1cf2ef64e49d1b69670beab9a74f7ea.png

Качество: WEBRip-AVC
Формат: MKV
Видео кодек: H.264
Аудио кодек: AC-3
Видео: MPEG4 Video (H264) 1024x576, ~ 2000 kbps, 25.00fps Бит/(Пиксели*Кадры): 0.136
Аудио: AC-3, 2 канала, 48.0 КГц, ~192 kbps, VBR

Доп. информация
01 - «Файв-о-клок у Маргариты» - (1-2 серии)
02 - «Реквием для Шакала» - (3-4 серии)
03 - «Большой куш» - (5-6 серии)
04 - «Слепая ярость» - (7-8 серии)
05 - «Нить Ариадны» - (9-10 серии)
06 - «Чужая Малая земля» - (11-12 серии)
07 - «Полонез Огинского» - (13-14 серии)
08 - «Служебная проверка» - (15-16 серии)
09 - «Дочки-матери» - (17-18 серии)
10 - «Последняя гастроль» - (19-20 серии)
11 - «Перевернутая жизнь» - (21-22 серии)
12 - «Заказ на двоих» - (23-24 серии)


Сторонней рекламы нет!

MediaInfo


ОбщееУникальный идентификатор : 212934615820797929278508215345004457462 (0xA031B71CA0E73FBB939BBDAFAA9CADF6)Полное имя : F:\Тихая охота WEBRip AVC\Тихая охота 01_серия_WEBRip_AVC.mkvФормат : MatroskaРазмер файла : 691 МбайтПродолжительность : 44 м.Общий поток : 2190 Кбит/секНазвание фильма : Tihaya.ohota.(01.seriya.iz.30).2014.WEB-DLRip.(AVC).MediaClubДата кодирования : UTC 2014-05-01 10:41:28Программа кодирования : mkvmerge v6.3.0 ('You can't stop me!') built on Jun 28 2013 20:09:41Библиотека кодирования : libebml v1.3.0 + libmatroska v1.4.0

ВидеоИдентификатор : 1Формат : AVCФормат/Информация : Advanced Video CodecПрофиль формата : Main@L3.1Параметр CABAC формата : ДаПараметр ReFrames формата : 2 кадраИдентификатор кодека : V_MPEG4/ISO/AVCПродолжительность : 44 м.Вид битрейта : ПостоянныйБитрейт : 2000 Кбит/секШирина : 1024 пикс.Высота : 576 пикс.Соотношение сторон : 16:9Частота кадров : 25,000 кадр/секЦветовое пространство : YUVПодвыборка цветности : 4:2:0Битовая глубина : 8 битТип развёртки : ПрогрессивнаяБит/(Пиксели*Кадры) : 0.136Размер потока : 616 Мбайт (89%)

АудиоИдентификатор : 2Формат : AC-3Формат/Информация : Audio Coding 3Расширение режима : CM (complete main)Идентификатор кодека : A_AC3Продолжительность : 44 м.Вид битрейта : ПостоянныйБитрейт : 192 Кбит/секКаналы : 2 каналаРасположение каналов : Front: L RЧастота : 48,0 КГцБитовая глубина : 16 битМетод сжатия : С потерямиРазмер потока : 60,5 Мбайт (9%)Язык : Russian


Раздача группы: http://savepic.su/3981179.png

Отдельное спасибо [b]nikolspup[/b] за предоставление материала.

Внимание ! Раздача ведётся путём добавления новых серий
Внимание! Раздача ведётся путём добавления новых серий; при каждом добавлении создётся новый торрент. Чтобы начать докачку новой серии, пользователям необходимо сделать следующее:
(1) остановить скачивание,
(2) удалить старый торрент у себя из клиента (старые серии удалять не надо),
(3) скачать новый торрент и запустить его у себя в клиенте вместо старого, при этом указать клиенту путь в старую папку куда и должно происходить скачивание новых серий.
Ваш клиент при этом должен произвести хеширование (проверку) старой папки (если не производит сам - помогите ему сделать это), и будет докачивать только те серии которых у вас ещё нет. Старые серии при этом не удаляются, а продолжают раздаваться!
Eсли вы уже удалили старые серии, то предотвратить повторную закачку старых серий можно, отжав галочку в соответсвующих местах при запуске нового торрента. По возможности, желательно не удалять старые серии как можно дольше чтобы релизёр не столько продолжал раздавать старые серии, а смог сконцентрироваться на новых.

ВНИМАНИЕ! ТОРРЕНТ ПЕРЕЗАЛИТ! ДОБАВЛЕНА 11-ая - 30-ая СЕРИИ!

Скриншоты
http://i56.fastpic.ru/thumb/2014/0501/3c/eecfadd64c6732cdc757f3b078a65f3c.jpeg http://i56.fastpic.ru/thumb/2014/0501/54/1c7f12f66f5c93bfe4277a81693bf554.jpeg http://i56.fastpic.ru/thumb/2014/0501/95/f891c0812a261da6e0972bb845979695.jpeg http://i56.fastpic.ru/thumb/2014/0501/ad/2361a61ce777b7fb28c469179ecd9cad.jpeg

http://i17.fastpic.ru/big/2011/0302/93/84d6588c7f6e1cc66b53d3103e74fa93.gif[/img][img]http://s60.radikal.ru/i170/1007/6a/664e8d89abdf.gif
Похожие файлы
Загрузка / Обновление
КатегорияСериалы RSS лента
Просмотров146 раз (a)
Взят1 раз (a)
Файлы30
Размер20.48 GB (21,994,972,642 байт)
Добавлен
РаздалViKa  (Искать торренты)
Участники
Участники - Загрузка / Обновление
Просматривают Просматривают Загрузка...

-†- ¿? -†-
« Предыдущая - † Страница † - Следующая »

:: Список Комментариев
Нет комментариев.

 Нет комментариев
Вам запрещенно редактировать, создать или удалять комментарии.
shpv© 2007-2014
Страничка сформирована за 0.079 секунд.
Яндекс.Метрика Rambler's Top100