скачать торрент трекер Friends
 
 Главная  •  Торренты  •  Новые релизы  •  Форум  •   •  Персоны кино  •  Правила  •  ЧаВо

Язык интерфейса
Язык интерфейса:


Привет, Гость
[15] из [15]
Введите Логин:
Введите Пароль:
Регистрация
Восстановить Пароль

Линки
АнекдотыБанкоматВсе теги / меткиДополнительные услугиТехподдержка

Главное Меню
 Главная Торренты Релизы за сегодня Персоны кино Запросы / Предложения (3) Правила ЧаВо Проверка BB кодов Топ 10 Архив новостей Прошлые опросы Форматы файлов Группы Последние комментарии Техподдержка

:: Детали раздачи
Торрент раздача является мультитрекерной — учтите, количество раздающих не будет совпадать с количеством участников на сайте (скачивание на клиентской стороне зависит от настроек uTorrent клиент программы, настройки -> Включить DHT, Обмен пирами и Поиск лок-х пиров).
Если висит надпись, пиры по нулям - не бойтесь, возможность скачать повторно торрент раздачу - есть. Попробуйте, в случае отказа - прокоментируйте или нажмите на "Позвать скачавших".

Старшая сестра / Серии: 1-4 из 4 (Фархот Абдуллаев)

Скачать
Магнет
ПомощьКак скачать раздачу
Поделиться
Теги / Меткимелодрама
Постер
ОписаниеГод выпуска: 2014
Производство: Россия, ООО студия "Герион"
Жанр: Мелодрама
Продолжительность: ~00:45:00
Субтитры: нет

Режиссёр: Фархот Абдуллаев

В ролях: арья Михайлова, Сергей Угрюмов, Анна Чурина, Андрей Дударев, Маша Мацель, Никита Степанов, Максим Дубовский, Владимир Воронков, Александр Абрамович, Виктор Рыбчинский, Виктор Манаев, Виталий Новиков, Зинаида Зубкова, Владислав Бохан, Никита Лубенько, Игорь Вепшковский, Роман Дервоед, Сергей Широчин, Александр Кашперов

Описание: Любить героя — тяжелый труд, иногда непосильный. Это должна понимать каждая женщина, чей возлюбленный выбрал для себя военное поприще. Быть готовой большую часть времени провести в одиночестве и страхе за жизнь близкого человека. Отпустить его на эту трудную мужскую работу, не жалея себя и его, не задавая вопросов. Именно такую жизнь выбрала для себя Лида, скромная учительница английского языка в небольшом провинциальном городе. Она ведет уроки, выкраивает из скудного семейного бюджета средства, чтобы обуть-одеть дочку, вступающую в самый сложный подростковый возраст, и ждет мужа с войны. Ее старшая сестра Надя не в пример успешнее, хоть она и одинока. Надя живет в столице, делает карьеру как ученый. На работе ее ценят. И с сыном — уже старшеклассником, — кажется, у нее полное взаимопонимание. Все меняется в один день, в одном бою, случившемся в конце 90-х далеко на юге, в горах Дагестана…

Все раздачи сериала: Старшая сестра

http://i29.fastpic.ru/big/2011/1030/ea/b1cf2ef64e49d1b69670beab9a74f7ea.png

Качество: HDTV 1080i
Формат: TS
Видео кодек: H.264
Аудио кодек: MPEG Audio
Видео: MPEG4 Video (H264) 1920x1080, ~ 6685 kbps, 25.00fps 0.129 bit/pixel
Аудио: MPEG Audio, 2 канала, 48,0 КГц, ~224 kbps

Сторонней рекламы нет!

MediaInfo


ОбщееИдентификатор : 1 (0x1)Полное имя : F:\Старшая сестра HDTV 1080i\Старшая сестра 01_02_серия_HDTV_1080i.tsФормат : MPEG-TSРазмер файла : 4,57 ГбайтПродолжительность : 1 ч. 29 м.Общий поток : 7271 Кбит/сек

ВидеоИдентификатор : 1901 (0x76D)Идентификатор меню : 1 (0x1)Формат : AVCФормат/Информация : Advanced Video CodecПрофиль формата : High@L4.0Параметр CABAC формата : ДаПараметр ReFrames формата : 3 кадраИдентификатор кодека : 27Продолжительность : 1 ч. 29 м.Битрейт : 6685 Кбит/секШирина : 1920 пикс.Высота : 1080 пикс.Соотношение сторон : 16:9Частота кадров : 25,000 кадр/секСтандарт вещания : ComponentЦветовое пространство : YUVПодвыборка цветности : 4:2:0Битовая глубина : 8 битТип развёртки : ЧересстрочнаяПорядок развёртки : Верхнее поле первоеБит/(Пиксели*Кадры) : 0.129Размер потока : 4,20 Гбайт (92%)Основные цвета : BT.709-5, BT.1361, IEC 61966-2-4, SMPTE RP177Характеристики трансфера : BT.709-5, BT.1361Коэффициенты матрицы : BT.709-5, BT.1361, IEC 61966-2-4 709, SMPTE RP177

АудиоИдентификатор : 2901 (0xB55)Идентификатор меню : 1 (0x1)Формат : MPEG AudioВерсия формата : Version 1Профиль формата : Layer 2Идентификатор кодека : 3Продолжительность : 1 ч. 29 м.Вид битрейта : ПостоянныйБитрейт : 224 Кбит/секКаналы : 2 каналаЧастота : 48,0 КГцМетод сжатия : С потерямиРазмер потока : 144 Мбайт (3%)Язык : Russian


Раздача группы: http://static.rutracker.org/ranks/rg_humor.gif

Отдельное спасибо [b]daboen[/b] за предоставление материала.

Внимание ! Раздача ведётся путём добавления новых серий
Внимание! Раздача ведётся путём добавления новых серий; при каждом добавлении создётся новый торрент. Чтобы начать докачку новой серии, пользователям необходимо сделать следующее:
(1) остановить скачивание,
(2) удалить старый торрент у себя из клиента (старые серии удалять не надо),
(3) скачать новый торрент и запустить его у себя в клиенте вместо старого, при этом указать клиенту путь в старую папку куда и должно происходить скачивание новых серий.
Ваш клиент при этом должен произвести хеширование (проверку) старой папки (если не производит сам - помогите ему сделать это), и будет докачивать только те серии которых у вас ещё нет. Старые серии при этом не удаляются, а продолжают раздаваться!
Eсли вы уже удалили старые серии, то предотвратить повторную закачку старых серий можно, отжав галочку в соответсвующих местах при запуске нового торрента. По возможности, желательно не удалять старые серии как можно дольше чтобы релизёр не столько продолжал раздавать старые серии, а смог сконцентрироваться на новых.

ВНИМАНИЕ! ТОРРЕНТ ПЕРЕЗАЛИТ! ДОБАВЛЕНА 5-ая - 8-ая СЕРИЯ!

Скриншоты
http://i56.fastpic.ru/thumb/2014/0504/13/a42e925e51d270bf4ff4e0097f136513.jpeg http://i56.fastpic.ru/thumb/2014/0504/3d/4f589570df5c80ef0aabc92f02ec703d.jpeg http://i56.fastpic.ru/thumb/2014/0504/11/decdf9c7b88e3b8fe41197366d455011.jpeg http://i56.fastpic.ru/thumb/2014/0504/b9/15d9316cf559fa462656ce9ea9fb5cb9.jpeg

http://i17.fastpic.ru/big/2011/0302/93/84d6588c7f6e1cc66b53d3103e74fa93.gif[/img][img]http://s60.radikal.ru/i170/1007/6a/664e8d89abdf.gif
Похожие файлы
Загрузка / Обновление
КатегорияСериалы RSS лента
Просмотров96 раз (a)
Взят1 раз (a)
Файлы2
Размер9.23 GB (9,914,736,480 байт)
Добавлен
РаздалViKa  (Искать торренты)
Участники
Участники - Загрузка / Обновление
Просматривают Просматривают Загрузка...

-†- ¿? -†-
« Предыдущая - † Страница † - Следующая »

:: Список Комментариев
Нет комментариев.

 Нет комментариев
Вам запрещенно редактировать, создать или удалять комментарии.
shpv© 2007-2014
Страничка сформирована за 0.598 секунд.
Яндекс.Метрика Rambler's Top100