скачать торрент трекер Friends
 
 Главная  •  Торренты  •  Новые релизы  •  Форум  •   •  Персоны кино  •  Правила  •  ЧаВо

Язык интерфейса
Язык интерфейса:


Привет, Гость
[15] из [15]
Введите Логин:
Введите Пароль:
Регистрация
Восстановить Пароль

Линки
АнекдотыБанкоматВсе теги / меткиДополнительные услугиТехподдержка

Главное Меню
 Главная Торренты Релизы за сегодня Персоны кино Запросы / Предложения (3) Правила ЧаВо Проверка BB кодов Топ 10 Архив новостей Прошлые опросы Форматы файлов Группы Последние комментарии Техподдержка

:: Детали раздачи
Торрент раздача является мультитрекерной — учтите, количество раздающих не будет совпадать с количеством участников на сайте (скачивание на клиентской стороне зависит от настроек uTorrent клиент программы, настройки -> Включить DHT, Обмен пирами и Поиск лок-х пиров).
Если висит надпись, пиры по нулям - не бойтесь, возможность скачать повторно торрент раздачу - есть. Попробуйте, в случае отказа - прокоментируйте или нажмите на "Позвать скачавших".

Так далеко, так близко / Серии: 1-4 из 8 (Андрей Черных)

Скачать
Магнет
ПомощьКак скачать раздачу
Поделиться
Теги / Меткидетектив
Постер
ОписаниеГод выпуска: 2014
Производство: FILM.UA, Intra
Жанр: Детектив
Продолжительность: ~0:45:00 серия
Субтитры: украинские вшитые

Режиссёр: Андрей Черных

В ролях: Иван Оганесян, Екатерина Решетникова, Вова Машук, Виктория Литвиненко, Александр Фисенко, Максим Важов, Виталий Салий, Виктор Алдошин, Михаил Досенко, Владимир Заднепровский, Александр Кузнецов, Владимир Мельник

Описание: Настя с сыном Иваном впервые за долгие годы приехали в город из деревни староверов. Их окружает чужой, непривычный, полный опасностей и соблазнов мир. По случайности Ваня становится единственным свидетелем убийства журналиста, который расследовал скандальное дело с участием высокопоставленных лиц. Дело об убийстве поручают принципиальному, но очень своенравному следователю Лещёву. Общаясь с мальчиком, он выясняет, что один из убийц журналистов – сотрудник полиции. С этого момента жизнь Вани, Насти и самого Лещёва находится в опасности.

Все раздачи сериала: Так далеко, так близко

http://i29.fastpic.ru/big/2011/1030/ea/b1cf2ef64e49d1b69670beab9a74f7ea.png

Качество: DVB
Формат: MPEG
Видео кодек: MPEG2
Аудио кодек: MPEG1
Видео: MPEG2 Video 768х576 @ 704x576 (4:3) 25.00fps ~2550 Kbps (0.252 bit/pixel)
Аудио: MPEG Audio 48000Hz 2 channels 192 Кбит/сек

Сторонней рекламы нет!

MediaInfo


ОбщееПолное имя : D:\Так далеко, так близко DVB\Так далеко, так близко 01_серия_DVB_by_Серый1779.mpgФормат : MPEG-PSРазмер файла : 889 МбайтПродолжительность : 44 м.Общий поток : 2798 Кбит/сек

ВидеоИдентификатор : 224 (0xE0)Формат : MPEG VideoВерсия формата : Version 2Профиль формата : Main@MainПараметр BVOP формата : НетПараметр матрицы формата : По умолчаниюПараметры GOP формата : M=1, N=23Продолжительность : 44 м.Вид битрейта : ПеременныйБитрейт : 2550 Кбит/секНоминальный битрейт : 15,0 Мбит/секШирина : 704 пикс.Высота : 576 пикс.Соотношение сторон : 4:3Частота кадров : 25,000 кадр/секСтандарт вещания : PALЦветовое пространство : YUVПодвыборка цветности : 4:2:0Битовая глубина : 8 битТип развёртки : ЧересстрочнаяПорядок развёртки : Верхнее поле первоеМетод сжатия : С потерямиБит/(Пиксели*Кадры) : 0.252Размер потока : 810 Мбайт (91%)

АудиоИдентификатор : 192 (0xC0)Формат : MPEG AudioВерсия формата : Version 1Профиль формата : Layer 2Продолжительность : 44 м.Вид битрейта : ПостоянныйБитрейт : 192 Кбит/секКаналы : 2 каналаЧастота : 48,0 КГцМетод сжатия : С потерямиРазмер потока : 61,0 Мбайт (7%)


Запись и монтаж: http://i27.fastpic.ru/big/2012/0109/f4/e3cb3b5ce4a312896095daceb5e8bcf4.gif

Раздача группы: http://static.rutracker.org/pic/rgrs/logo.png

Внимание ! Раздача ведётся путём добавления новых серий
Внимание! Раздача ведётся путём добавления новых серий; при каждом добавлении создётся новый торрент. Чтобы начать докачку новой серии, пользователям необходимо сделать следующее:
(1) остановить скачивание,
(2) удалить старый торрент у себя из клиента (старые серии удалять не надо),
(3) скачать новый торрент и запустить его у себя в клиенте вместо старого, при этом указать клиенту путь в старую папку куда и должно происходить скачивание новых серий.
Ваш клиент при этом должен произвести хеширование (проверку) старой папки (если не производит сам - помогите ему сделать это), и будет докачивать только те серии которых у вас ещё нет. Старые серии при этом не удаляются, а продолжают раздаваться!
Eсли вы уже удалили старые серии, то предотвратить повторную закачку старых серий можно, отжав галочку в соответсвующих местах при запуске нового торрента. По возможности, желательно не удалять старые серии как можно дольше чтобы релизёр не столько продолжал раздавать старые серии, а смог сконцентрироваться на новых.

ВНИМАНИЕ! ТОРРЕНТ ПЕРЕЗАЛИТ! ДОБАВЛЕНА 3-ая - 4-ая СЕРИИ!

Скриншоты
http://i56.fastpic.ru/thumb/2014/0504/17/f0021ccf0fb2bc58683efdeaf965e017.jpeg http://i56.fastpic.ru/thumb/2014/0504/9f/30393088eb37d8be91e28d71bb842e9f.jpeg http://i56.fastpic.ru/thumb/2014/0504/c6/00bb8b8f8b258c9aaae5725203ba71c6.jpeg http://i56.fastpic.ru/thumb/2014/0504/6f/50c34cab0c1b5689388ac375394fb56f.jpeg

http://i17.fastpic.ru/big/2011/0302/93/84d6588c7f6e1cc66b53d3103e74fa93.gif[/img][img]http://s60.radikal.ru/i170/1007/6a/664e8d89abdf.gif
Похожие файлы
Загрузка / Обновление
КатегорияСериалы RSS лента
Просмотров65 раз (a)
Взят0 раз (a)
Файлы4
Размер3.33 GB (3,579,551,744 байт)
Добавлен
РаздалViKa  (Искать торренты)
Участники
Участники - Загрузка / Обновление
Просматривают Просматривают Загрузка...

-†- ¿? -†-
« Предыдущая - † Страница † - Следующая »

:: Список Комментариев
Нет комментариев.

 Нет комментариев
Вам запрещенно редактировать, создать или удалять комментарии.
shpv© 2007-2014
Страничка сформирована за 0.054 секунд.
Яндекс.Метрика Rambler's Top100