скачать торрент трекер Friends
 
 Главная  •  Торренты  •  Новые релизы  •  Форум  •   •  Персоны кино  •  Правила  •  ЧаВо

Язык интерфейса
Язык интерфейса:


Привет, Гость
[15] из [15]
Введите Логин:
Введите Пароль:
Регистрация
Восстановить Пароль

Линки
АнекдотыБанкоматВсе теги / меткиДополнительные услугиТехподдержка

Главное Меню
 Главная Торренты Релизы за сегодня Персоны кино Запросы / Предложения (3) Правила ЧаВо Проверка BB кодов Топ 10 Архив новостей Прошлые опросы Форматы файлов Группы Последние комментарии Техподдержка

:: Детали раздачи
Торрент раздача является мультитрекерной — учтите, количество раздающих не будет совпадать с количеством участников на сайте (скачивание на клиентской стороне зависит от настроек uTorrent клиент программы, настройки -> Включить DHT, Обмен пирами и Поиск лок-х пиров).
Если висит надпись, пиры по нулям - не бойтесь, возможность скачать повторно торрент раздачу - есть. Попробуйте, в случае отказа - прокоментируйте или нажмите на "Позвать скачавших".

Контуженый, Или Уроки Плавания Вольным Стилем / Серии: 1-4 из 4 (Владимир Зайкин)

Скачать
Магнет
ПомощьКак скачать раздачу
Поделиться
Теги / Меткидрама
Постер
ОписаниеГод выпуска: 2014
Производство: Россия, Красный Квадрат Кино, Фокус Фильм
Жанр: Драма
Продолжительность: ~ 00:47:00
Субтитры: Отсутствуют

Режиссёр: Владимир Зайкин

В ролях: Виктор Хориняк, Мария Баева, Юрий Стоянов, Дмитрий Нагиев, Михаил Горевой, Эра Зиганшина, Михаил Ефремов, Александр Панкратов-Чёрный, Александр Мохов, Мария Берсенева, Андрей Руденский, Кирилл Продолятченко

Описание: Артем Савушкин - надежда российской команды по плаванию - после серьезной травмы возвращается в городок детства и видит там большие перемены: во Дворце спорта теперь ночной клуб, а на улицах подростки торгуют "дурью". Артем решает изменить сложившуюся ситуацию...

Все раздачи сериала: Все раздачи сериала

Сэмпл: http://multi-up.com/970078

Качество: SATRip
Формат: AVI
Видео кодек: DivX
Аудио кодек: MP3
Видео: DivX 5, 704х400, (16:9), 25,000 кадров/сек, 1702 Кбит/сек, 0.242 bit/pixel
Аудио: MP3, 48,0 КГц, 128 Кбит/сек (2 канала)

Сторонней рекламы нет!

MI
Формат : AVI
Формат/Информация : Audio Video Interleave
Размер файла : 627 Мбайт
Продолжительность : 47 м.
Общий поток : 1839 Кбит/сек
Библиотека кодирования : VirtualDub-MPEG2 build 24600/release

Видео
Идентификатор : 0
Формат : MPEG-4 Visual
Параметр BVOP формата : Да
Параметр QPel формата : Нет
Параметр GMC формата : Без точки перехода
Параметр матрицы формата : Default (H.263)
Идентификатор кодека : DX50
Идентификатор кодека/Подсказка : DivX 5
Продолжительность : 47 м.
Битрейт : 1702 Кбит/сек
Ширина : 704 пикселя
Высота : 400 пикселей
Соотношение сторон : 16:9
Частота кадров : 25,000 кадров/сек
Цветовое пространство : YUV
Субдискретизация насыщенности : 4:2:0
Битовая глубина : 8 бит
Тип развёртки : Прогрессивная
Метод сжатия : С потерями
Бит/(Пиксели*Кадры) : 0.242
Размер потока : 580 Мбайт (93%)
Библиотека кодирования : Intel(R) MPEG-4 encoder based on Intel(R) IPP 6.1 build 137.20[6.1.137.763]

Аудио
Идентификатор : 1
Формат : MPEG Audio
Версия формата : Version 1
Профиль формата : Layer 3
Режим : Joint stereo
Расширение режима : MS Stereo
Идентификатор кодека : 55
Идентификатор кодека/Подсказка : MP3
Продолжительность : 47 м.
Вид битрейта : Постоянный
Битрейт : 128 Кбит/сек
Каналы : 2 канала
Частота : 48,0 КГц
Метод сжатия : С потерями
Размер потока : 43,6 Мбайт (7%)
Выравнивание : Разделение по промежуткам
Продолжительность промежутка : 40 мс. (1,00 видеокадр)
Время предзагрузки промежутка : 500 мс.
Библиотека кодирования : LAME3.98.2


Скриншоты
http://i55.fastpic.ru/thumb/2014/0428/55/896760e5623803eaa1ef84998dcec455.jpeg http://i55.fastpic.ru/thumb/2014/0428/81/1b3a67b9a3e34dc8c03d2d3f691add81.jpeg http://i55.fastpic.ru/thumb/2014/0428/7f/d23749fd4312b7da70cdf23067db1d7f.jpeg http://i56.fastpic.ru/thumb/2014/0428/aa/2e1d56f64a3fa299dacf22ef626ea4aa.jpeg http://i56.fastpic.ru/thumb/2014/0428/4a/40e9a771d3a966d59dbd7542526ed74a.jpeg

Добавлены все серии сериала
Похожие файлы
Загрузка / Обновление
КатегорияСериалы RSS лента
Просмотров89 раз (a)
Взят0 раз (a)
Файлы4
Размер2.51 GB (2,692,171,336 байт)
Добавлен
РаздалViKa  (Искать торренты)
Участники
Участники - Загрузка / Обновление
Просматривают Просматривают Загрузка...

-†- ¿? -†-
« Предыдущая - † Страница † - Следующая »

:: Список Комментариев
Нет комментариев.

 Нет комментариев
Вам запрещенно редактировать, создать или удалять комментарии.
shpv© 2007-2014
Страничка сформирована за 0.059 секунд.
Яндекс.Метрика Rambler's Top100