скачать торрент трекер Friends
 
 Главная  •  Торренты  •  Новые релизы  •  Форум  •   •  Персоны кино  •  Правила  •  ЧаВо

Язык интерфейса
Язык интерфейса:


Привет, Гость
[15] из [15]
Введите Логин:
Введите Пароль:
Регистрация
Восстановить Пароль

Линки
АнекдотыБанкоматВсе теги / меткиДополнительные услугиТехподдержка

Главное Меню
 Главная Торренты Релизы за сегодня Персоны кино Запросы / Предложения (3) Правила ЧаВо Проверка BB кодов Топ 10 Архив новостей Прошлые опросы Форматы файлов Группы Последние комментарии Техподдержка

:: Детали раздачи
Торрент раздача является мультитрекерной — учтите, количество раздающих не будет совпадать с количеством участников на сайте (скачивание на клиентской стороне зависит от настроек uTorrent клиент программы, настройки -> Включить DHT, Обмен пирами и Поиск лок-х пиров).
Если висит надпись, пиры по нулям - не бойтесь, возможность скачать повторно торрент раздачу - есть. Попробуйте, в случае отказа - прокоментируйте или нажмите на "Позвать скачавших".

Русский шоколад / Серии: 1 - 24 из 24 (Дарья Полторацкая)(Телеканал Россия)

Скачать
Магнет
ПомощьКак скачать раздачу
Поделиться
Теги / Меткимелодрама
Описаниеhttp://i16.fastpic.ru/big/2011/0124/19/cce5ee71f4b746059288a7dc504ada19.jpgГод выпуска: 2010
Производство: компания "Кинозавод" при участии компании "Кино-Ателье"
Жанр: Мелодрама
Продолжительность: ~ 00:43:00 серия
Субтитры:Отсутствуют

Режиссёр: Дарья Полторацкая

В ролях: Елена Оболенская (Белевич), Андрей Сергеев, Кирилл Козаков, Кирилл Запорожский, Екатерина Астахова, Юлия Майборода, Елизавета Лотова, Дмитрий Брусникин, Алексей Лысенков, Ёла Санько, Александр Коручеков, Наталья Васильева (IV), Вадим Цаллати, Анастасия Бусыгина, Оксана Климова, Михаил Пярн, Алексей Золотовицкий, Кирилл Иванченко, Дмитрий Титов, Дмитрий Панфилов, Александр Сухинин, Антон Белый, Виталий Вашедский, Ольга Лавренова, Ирина Ефремова

Описание: Действие происходит в наши дни, в старом провинциальном городе под названием Спасск. Прямо в центре города находится хлебобулочный завод, где ещё с «лохматых» советских годов производится всевозможная сдобная продукция широкого потребления, наполняющая прилавки всех областных магазинов и лавочек. Именно благодаря заводу город процветает: у жителей всегда есть работа, у местных властей - поддержка, у школ и церквей – «спонсор»… Подобно сердечному насосу, завод наполняет артерии города жизнью, и поэтому владелец завода Матвей Пахомов давно и прочно занимает положение неофициального «хозяина» города…
Будучи человеком могучим и властным, Пахомов полноправно царствует в городе. Он всего добился сам и четко разделяет мир на черное и белое, на своих и чужих. Но… Однажды всё меняется. В городе появляются незнакомцы, которые не вписываются в его устоявшееся мироощущение. Спокойное течение жизни нарушается раз и навсегда!…
В один прекрасный день из Москвы приезжает семья Кольцовых, которая как раз и состоит из сплошных бунтарей, ярких индивидуальностей и сильных личностей! Они открывают в городе домашнее кафе «Птица счастья», где кроме горячего шоколада, приготовленного по старинному бельгийскому рецепту и великолепных изысканных домашних сладостей для каждого посетителя находится и доброе слово, и шутка, и участие. Главная героиня истории и хозяйка кафе – Марина Кольцова. Именно она увлекла семью за собой в Спасск, чтобы спастись от материальных проблем, возникших на фоне кризиса и начать новую жизнь в провинции...

http://static.rutracker.org/smiles/icon_arrow.gif
Все раздачи сериала
http://static.rutracker.org/smiles/icon_arrow.gif
[b]СЭМПЛ[/b]

Релиз http://i2.fastpic.ru/big/2010/0213/e8/2b174749f23d6e532f2854ecb44e95e8.gif

Качество: DVB
Формат: MPEG
Видео кодек: MPEG2
Аудио кодек: MPEG1 Layer 2
Видео: MPEG2 Video 720x576 (4:3) 25.00fps 5 359 Kbps, 0.517 bit/pixel
Аудио: MPEG Audio 48000Hz stereo 256 Кбит/сек

Раздача ведётся путём добавления новых серий
Внимание! Раздача ведётся путём добавления новых серий; при каждом добавлении создётся новый торрент. Чтобы начать докачку новой серии, пользователям необходимо сделать следующее:
(1) остановить скачивание,
(2) удалить старый торрент у себя из клиента (старые серии удалять не надо),
(3) скачать новый торрент и запустить его у себя в клиенте вместо старого, при этом указать клиенту путь в старую папку куда и должно происходить скачивание новых серий.
Ваш клиент при этом должен произвести хеширование (проверку) старой папки (если не производит сам - помогите ему сделать это), и будет докачивать только те серии которых у вас ещё нет. Старые серии при этом не удаляются, а продолжают раздаваться!
Eсли вы уже удалили старые серии, то предотвратить повторную закачку старых серий можно, отжав галочку в соответсвующих местах при запуске нового торрента. По возможности, желательно не удалять старые серии как можно дольше чтобы релизёр не столько продолжал раздавать старые серии, а смог сконцентрироваться на новых.


MI
Complete name : F:\TORENTRAZDACHI\Русский шоколад_DVB by CLIPMAN\Русский шоколад.01_DVB by CLIPMAN.mpg
Format : MPEG-PS
File size : 1.74 GiB
Duration : 43mn 24s
Overall bit rate : 5 729 Kbps

Video
ID : 224 (0xE0)
Format : MPEG Video
Format version : Version 2
Format profile : Main@Main
Format settings, BVOP : Yes
Format settings, Matrix : Default
Duration : 43mn 24s
Bit rate mode : Variable
Bit rate : 5 359 Kbps
Nominal bit rate : 10 000 Kbps
Width : 720 pixels
Height : 576 pixels
Display aspect ratio : 4:3
Frame rate : 25.000 fps
Standard : PAL
Color space : YUV
Chroma subsampling : 4:2:0
Bit depth : 8 bits
Scan type : Interlaced
Scan order : Top Field First
Bits/(Pixel*Frame) : 0.517
Stream size : 1.62 GiB (94%)

Audio
ID : 192 (0xC0)
Format : MPEG Audio
Format version : Version 1
Format profile : Layer 2
Duration : 43mn 24s
Bit rate mode : Constant
Bit rate : 256 Kbps
Channel(s) : 2 channels
Sampling rate : 48.0 KHz
Stream size : 79.5 MiB (4%)


Скриншоты
http://i16.fastpic.ru/thumb/2011/0124/13/2e84ab90a44e58ef173759708111a013.jpeg http://i16.fastpic.ru/thumb/2011/0124/91/416e550de391fe6d8c07545aeaedfa91.jpeg http://i16.fastpic.ru/thumb/2011/0124/64/3d20aa2a1111b02afaba6c7289193364.jpeg http://i16.fastpic.ru/thumb/2011/0124/7b/3ccb00326227dc507285014facf2c37b.jpeg http://i16.fastpic.ru/thumb/2011/0124/b4/02a7f9d026e0b5b0ddf6485df49901b4.jpeg http://i16.fastpic.ru/thumb/2011/0124/b3/4dd2b62a7c16cf447606880ba87eb6b3.jpeg
Похожие файлы
Загрузка / Обновление
КатегорияСериалы RSS лента
Просмотров105 раз (a)
Взят0 раз (a)
Файлы24
Размер41.90 GB (44,985,221,120 байт)
Добавлен
РаздалViKa  (Искать торренты)
Участники
Участники - Загрузка / Обновление
Просматривают Просматривают Загрузка...

-†- ¿? -†-
« Предыдущая - † Страница † - Следующая »

:: Список Комментариев
Нет комментариев.

 Нет комментариев
Вам запрещенно редактировать, создать или удалять комментарии.
shpv© 2007-2014
Страничка сформирована за 0.190 секунд.
Яндекс.Метрика Rambler's Top100