скачать торрент трекер Friends
 
 Главная  •  Торренты  •  Новые релизы  •  Форум  •   •  Персоны кино  •  Правила  •  ЧаВо

Язык интерфейса
Язык интерфейса:


Привет, Гость
[15] из [15]
Введите Логин:
Введите Пароль:
Регистрация
Восстановить Пароль

Линки
АнекдотыБанкоматВсе теги / меткиДополнительные услугиТехподдержка

Главное Меню
 Главная Торренты Релизы за сегодня Персоны кино Запросы / Предложения (3) Правила ЧаВо Проверка BB кодов Топ 10 Архив новостей Прошлые опросы Форматы файлов Группы Последние комментарии Техподдержка

:: Детали раздачи
Торрент раздача является мультитрекерной — учтите, количество раздающих не будет совпадать с количеством участников на сайте (скачивание на клиентской стороне зависит от настроек uTorrent клиент программы, настройки -> Включить DHT, Обмен пирами и Поиск лок-х пиров).
Если висит надпись, пиры по нулям - не бойтесь, возможность скачать повторно торрент раздачу - есть. Попробуйте, в случае отказа - прокоментируйте или нажмите на "Позвать скачавших".

Так далеко, так близко / Серии: 1-4 из 8 (Андрей Черных)

Скачать
Магнет
ПомощьКак скачать раздачу
Поделиться
Теги / Меткидетектив
Постер
ОписаниеГод выпуска: 2014
Производство: FILM.UA, Intra
Жанр: Детектив
Продолжительность: ~0:45:00 серия
Субтитры: нет

Режиссёр: Андрей Черных

В ролях: Иван Оганесян, Екатерина Решетникова, Вова Машук, Виктория Литвиненко, Александр Фисенко, Максим Важов, Виталий Салий, Виктор Алдошин, Михаил Досенко, Владимир Заднепровский, Александр Кузнецов, Владимир Мельник

Описание: Настя с сыном Иваном впервые за долгие годы приехали в город из деревни староверов. Их окружает чужой, непривычный, полный опасностей и соблазнов мир. По случайности Ваня становится единственным свидетелем убийства журналиста, который расследовал скандальное дело с участием высокопоставленных лиц. Дело об убийстве поручают принципиальному, но очень своенравному следователю Лещёву. Общаясь с мальчиком, он выясняет, что один из убийц журналистов – сотрудник полиции. С этого момента жизнь Вани, Насти и самого Лещёва находится в опасности.

Все раздачи сериала: Так далеко, так близко

http://i29.fastpic.ru/big/2011/1030/ea/b1cf2ef64e49d1b69670beab9a74f7ea.png

Качество: WEBRip 1080p
Формат: MKV
Видео кодек: H.264
Аудио кодек: AC-3
Видео: x264, 1920 х 1080 (16:9), 25,000 кадр/сек, ~ 2816 kbps, 0.054 bit/pixel
Аудио: AC-3, 48000 Hz, ~192 Kbps, 2 канала

Сторонней рекламы нет!

MediaInfo


ОбщееУникальный идентификатор : 205470965684460769070346481231206501328 (0x9A9444BFC89E6364B9131D42035F4BD0)Полное имя : D:\Так далеко, так близко WEBRip 1080p\Так далеко, так близко 01_серия_WEBRip_1080p.mkvФормат : MatroskaРазмер файла : 995 МбайтПродолжительность : 45 м.Общий поток : 3070 Кбит/секДата кодирования : UTC 2014-05-04 23:49:52Программа кодирования : mkvmerge v5.8.0 ('No Sleep / Pillow') built on Sep 2 2012 15:37:04Библиотека кодирования : libebml v1.2.3 + libmatroska v1.3.0

ВидеоИдентификатор : 1Формат : AVCФормат/Информация : Advanced Video CodecПрофиль формата : High@L4.0Параметр CABAC формата : ДаПараметр ReFrames формата : 2 кадраИдентификатор кодека : V_MPEG4/ISO/AVCПродолжительность : 45 м.Битрейт : 2816 Кбит/секШирина : 1920 пикс.Высота : 1080 пикс.Соотношение сторон : 16:9Режим частоты кадров : ПеременныйЧастота кадров : 25,000 кадр/секЦветовое пространство : YUVПодвыборка цветности : 4:2:0Битовая глубина : 8 битТип развёртки : ПрогрессивнаяБит/(Пиксели*Кадры) : 0.054Размер потока : 913 Мбайт (92%)Язык : Russian

АудиоИдентификатор : 2Формат : AC-3Формат/Информация : Audio Coding 3Расширение режима : CM (complete main)Идентификатор кодека : A_AC3Продолжительность : 45 м.Вид битрейта : ПостоянныйБитрейт : 192 Кбит/секКаналы : 2 каналаРасположение каналов : Front: L RЧастота : 48,0 КГцБитовая глубина : 16 битМетод сжатия : С потерямиРазмер потока : 62,3 Мбайт (6%)Язык : Russian


Раздача группы: http://static.rutracker.org/ranks/rg_humor.gif

Отдельное спасибо [b]valera76[/b] за предоставление материала.

Внимание ! Раздача ведётся путём добавления новых серий
Внимание! Раздача ведётся путём добавления новых серий; при каждом добавлении создётся новый торрент. Чтобы начать докачку новой серии, пользователям необходимо сделать следующее:
(1) остановить скачивание,
(2) удалить старый торрент у себя из клиента (старые серии удалять не надо),
(3) скачать новый торрент и запустить его у себя в клиенте вместо старого, при этом указать клиенту путь в старую папку куда и должно происходить скачивание новых серий.
Ваш клиент при этом должен произвести хеширование (проверку) старой папки (если не производит сам - помогите ему сделать это), и будет докачивать только те серии которых у вас ещё нет. Старые серии при этом не удаляются, а продолжают раздаваться!
Eсли вы уже удалили старые серии, то предотвратить повторную закачку старых серий можно, отжав галочку в соответсвующих местах при запуске нового торрента. По возможности, желательно не удалять старые серии как можно дольше чтобы релизёр не столько продолжал раздавать старые серии, а смог сконцентрироваться на новых.

ВНИМАНИЕ! ТОРРЕНТ ПЕРЕЗАЛИТ! ДОБАВЛЕНА 2-ая - 4-ая СЕРИИ!

Скриншоты
http://i016.radikal.ru/1405/57/464f3aa05f90t.jpg http://s019.radikal.ru/i623/1405/5a/60fff98c8597t.jpg http://s017.radikal.ru/i410/1405/44/05dcd97b40cft.jpg http://s019.radikal.ru/i615/1405/15/876d135a95a1t.jpg

http://i17.fastpic.ru/big/2011/0302/93/84d6588c7f6e1cc66b53d3103e74fa93.gif[/img][img]http://s60.radikal.ru/i170/1007/6a/664e8d89abdf.gif
Скриншоты
Похожие файлы
Загрузка / Обновление
КатегорияСериалы RSS лента
Просмотров112 раз (a)
Взят0 раз (a)
Файлы4
Размер3.89 GB (4,177,129,938 байт)
Добавлен
РаздалViKa  (Искать торренты)
Участники
Участники - Загрузка / Обновление
Просматривают Просматривают Загрузка...

-†- ¿? -†-
« Предыдущая - † Страница † - Следующая »

:: Список Комментариев
Нет комментариев.

 Нет комментариев
Вам запрещенно редактировать, создать или удалять комментарии.
shpv© 2007-2014
Страничка сформирована за 1.058 секунд.
Яндекс.Метрика Rambler's Top100