скачать торрент трекер Friends
 
 Главная  •  Торренты  •  Новые релизы  •  Форум  •   •  Персоны кино  •  Правила  •  ЧаВо

Язык интерфейса
Язык интерфейса:


Привет, Гость
[15] из [15]
Введите Логин:
Введите Пароль:
Регистрация
Восстановить Пароль

Линки
АнекдотыБанкоматВсе теги / меткиДополнительные услугиТехподдержка

Главное Меню
 Главная Торренты Релизы за сегодня Персоны кино Запросы / Предложения (3) Правила ЧаВо Проверка BB кодов Топ 10 Архив новостей Прошлые опросы Форматы файлов Группы Последние комментарии Техподдержка

:: Детали раздачи
Торрент раздача является мультитрекерной — учтите, количество раздающих не будет совпадать с количеством участников на сайте (скачивание на клиентской стороне зависит от настроек uTorrent клиент программы, настройки -> Включить DHT, Обмен пирами и Поиск лок-х пиров).
Если висит надпись, пиры по нулям - не бойтесь, возможность скачать повторно торрент раздачу - есть. Попробуйте, в случае отказа - прокоментируйте или нажмите на "Позвать скачавших".

Так далеко, так близко / Серии: 1-4 из 8 (Aндрей Чeрных)

Скачать
Магнет
ПомощьКак скачать раздачу
Поделиться
Теги / Меткидетектив
Постер
ОписаниеГод выпуска: 2014
Производство: FILM.UA, Intra
Жанр: детектив
Продолжительность: 00:46:00
Субтитры: Нет

Режиссёр: Андрей Черных

В ролях: Иван Оганесян, Екатерина Решетникова, Вова Машук, Виктория Литвиненко, Александр Фисенко, Максим Важов, Виталий Салий, Виктор Алдошин, Михаил Досенко, Владимир Заднепровский, Александр Кузнецов, Владимир Мельник, Тарас Готовцев, Наталья Кудряшова (II), Варвара Куприна

Описание: Настя с сыном Иваном впервые за долгие годы приехали в город из деревни староверов. Их окружает чужой, непривычный, полный опасностей и соблазнов мир. По случайности Ваня становится единственным свидетелем убийства журналиста, который расследовал скандальное дело с участием высокопоставленных лиц. Дело об убийстве поручают принципиальному, но очень своенравному
следователю Лещёву. Общаясь с мальчиком, он выясняет, что один из убийц журналистов – сотрудник полиции. С этого момента жизнь Вани, Насти и самого Лещёва находится в опасности.





Доп. информация: Реклама отсутствует!





Релиз группы:: http://static.rutracker.org/pic/rgrs/logo.png





Все раздачи сериала: http://rutracker.org/forum/tracker.php?f=9&nm=Т...,%20так%20близко
Сэмпл: https://cloud.mail.ru/public/2e3b3bfee69f/%D0%A2%D0...00p. by.simka.avi

Качество: WEB-DLRip (Исходник 720р)
Формат: AVI
Видео кодек: XviD
Аудио кодек: MP3
Видео: 720x400, 25 fps, XviD, ~1350 kbps, 0.187 bit/pixel
Аудио: 48 kHz, MPEG Layer 3, 2 ch, 192 kbps

MI
Общее
Полное имя : Y:\Сериалы 2014\Так далеко, так близко (2014)\Так далеко, так близко.(01.seriya).2014.XviD.WEBDLRip.400p.by.simka.avi
Формат : AVI
Формат/Информация : Audio Video Interleave
Размер файла : 502 Мбайт
Продолжительность : 45 м.
Общий поток : 1548 Кбит/сек
Программа кодирования : VirtualDubMod 1.5.10.3 | www.virtualdub-fr.org || (build 2550/release)
Библиотека кодирования : VirtualDubMod build 2550/release

Видео
Идентификатор : 0
Формат : MPEG-4 Visual
Профиль формата : Advanced Simple@L5
Параметр BVOP формата : 1
Параметр QPel формата : Нет
Параметр GMC формата : Без точки перехода
Параметр матрицы формата : Default (H.263)
Идентификатор кодека : XVID
Идентификатор кодека/Подсказка : XviD
Продолжительность : 45 м.
Битрейт : 1346 Кбит/сек
Ширина : 720 пикселей
Высота : 400 пикселей
Соотношение сторон : 16:9
Частота кадров : 25,000 кадров/сек
Цветовое пространство : YUV
Субдискретизация насыщенности : 4:2:0
Битовая глубина : 8 бит
Тип развёртки : Прогрессивная
Метод сжатия : С потерями
Бит/(Пиксели*Кадры) : 0.187
Размер потока : 436 Мбайт (87%)
Библиотека кодирования : XviD 1.2.1 (UTC 2008-12-04)

Аудио
Идентификатор : 1
Формат : MPEG Audio
Версия формата : Version 1
Профиль формата : Layer 3
Режим : Joint stereo
Расширение режима : MS Stereo
Идентификатор кодека : 55
Идентификатор кодека/Подсказка : MP3
Продолжительность : 45 м.
Вид битрейта : Постоянный
Битрейт : 192 Кбит/сек
Каналы : 2 канала
Частота : 44,1 КГц
Метод сжатия : С потерями
Размер потока : 62,2 Мбайт (12%)
Выравнивание : Разделение по промежуткам
Продолжительность промежутка : 40 мс. (1,00 видеокадр)
Время предзагрузки промежутка : 500 мс.
Библиотека кодирования : LAME3.99r
Настройки программы : -m j -V 4 -q 2 -lowpass 18.6 -b 192


Скриншоты
http://firepic.org/?v=2014-05-04_d9vlhkv12czp.png
http://firepic.org/?v=2014-05-04_w8wbaqdn5wk3.png
http://firepic.org/?v=2014-05-04_s9orphun4fyb.png
http://firepic.org/?v=2014-05-04_qk2imqx9okao.png
http://firepic.org/?v=2014-05-04_2d3vzcnhb3yq.png
http://firepic.org/?v=2014-05-04_aj5ps674wefd.png
http://firepic.org/?v=2014-05-04_3esce84izp83.png


-------------

Внимание! Раздача ведётся путём добавления новых выпусков
При каждом добавлении создаётся новый торрент. Чтобы начать докачку нового выпуска, пользователям необходимо сделать следующее:
П остановить скачивание;
П удалить старый торрент у себя из клиента (старые выпуски удалять не надо);
П скачать новый торрент и запустить его у себя в клиенте вместо старого, при этом указать клиенту путь в старую папку куда и должно происходить скачивание новых выпусков;
П ваш клиент при запуске должен произвести хеширование (проверку) старой папки (если не производит сам - помогите ему сделать это), и будет докачивать только те выпуски, которых у вас ещё нет. Старые выпуски при этом не удаляются, а продолжают раздаваться!, Конец фильма!, Продолжения в понедельник если не доберется ПО http://static.rutracker.org/smiles/icon_biggrin.gif

П Eсли вы уже удалили старые выпуски, то предотвратить повторную закачку старых выпусков можно, отжав галочку в соответсвующих местах при запуске нового торрента.

Добавлена 2-я - 4-я серия
Похожие файлы
Загрузка / Обновление
КатегорияСериалы RSS лента
Просмотров88 раз (a)
Взят0 раз (a)
Файлы4
Размер1.96 GB (2,103,425,024 байт)
Добавлен
РаздалViKa  (Искать торренты)
Участники
Участники - Загрузка / Обновление
Просматривают Просматривают Загрузка...

-†- ¿? -†-
« Предыдущая - † Страница † - Следующая »

:: Список Комментариев
Нет комментариев.

 Нет комментариев
Вам запрещенно редактировать, создать или удалять комментарии.
shpv© 2007-2014
Страничка сформирована за 0.037 секунд.
Яндекс.Метрика Rambler's Top100