скачать торрент трекер Friends
 
 Главная  •  Торренты  •  Новые релизы  •  Форум  •   •  Персоны кино  •  Правила  •  ЧаВо

Язык интерфейса
Язык интерфейса:


Привет, Гость
[15] из [15]
Введите Логин:
Введите Пароль:
Регистрация
Восстановить Пароль

Линки
АнекдотыБанкоматВсе теги / меткиДополнительные услугиТехподдержка

Главное Меню
 Главная Торренты Релизы за сегодня Персоны кино Запросы / Предложения (3) Правила ЧаВо Проверка BB кодов Топ 10 Архив новостей Прошлые опросы Форматы файлов Группы Последние комментарии Техподдержка

:: Детали раздачи
Торрент раздача является мультитрекерной — учтите, количество раздающих не будет совпадать с количеством участников на сайте (скачивание на клиентской стороне зависит от настроек uTorrent клиент программы, настройки -> Включить DHT, Обмен пирами и Поиск лок-х пиров).
Если висит надпись, пиры по нулям - не бойтесь, возможность скачать повторно торрент раздачу - есть. Попробуйте, в случае отказа - прокоментируйте или нажмите на "Позвать скачавших".

Прокурорская проверка. Май 2014 (Андрей Морозов, Константин Смирнов, Владимир Морозов)

Скачать
Магнет
ПомощьКак скачать раздачу
Поделиться
Теги / Меткителедетектив, реалити-драма, криминал
Постер
ОписаниеГод выпуска: 2014
Производство: Россия, ТК НТВ
Жанр: Теледетектив, реалити-драма, криминал
Продолжительность: ~ 00:54:00
Режиссёр: Андрей Морозов, Константин Смирнов, Владимир Морозов

В ролях: Павел Ильин, Дмитрий Белоногов, Анна Сердюкова, Михаил Кондратьев, Александр Касаткин, Ирина Лазарева, Андрей Машков

Описание: Детективный сериал повествует о трудовых буднях двух российских прокуроров — Павла Ильина и Дмитрия Белоногова, а также их ближайших помощников Максима, Ольги и компьютерного гения Саши. Служба в прокуратуре, без преувеличения, частенько и опасна, и всегда трудна, потому что цель работы — проверить соблюдение законов должностными лицами, вывести на чистую воду мошенников, нечистых на руку государственных служащих и бизнесменов.
Если возникают подозрения в правильности проведения следствия, то к работе приступают прокуроры. Юристам государства предстоит выяснить, проводилось ли расследование с нарушениями, или не все улики были прикреплены к делу, либо оно было необоснованно закрыто, признание было получено насильно, в тюрьме сидит невиновный, а преступник гуляет на свободе... Ильин и Белоногов на пределе сил пытаются восстановить справедливость и строго следуют букве закона, выкапывая малейшие детали, которые открывают им истину. Основу экранных историй составляют реально произошедшие события, что придает сериалу жизненность и российский колорит.


Все раздачи сериала

Сэмпл: http://sendfile.su/975871

Качество: SATRip
Формат: AVI
Видео кодек: XviD
Аудио кодек: MP3
Видео: XviD, ~ 1500 Kbps, 704х416, 704х464, 25.000 fps, 0.20 bit/pixel
Аудио: MP3, 2 ch, 128 Kbps, 48.0 KHz

Список серий
05.05.2014 - Детская история
Брак молодых родителей дал трещину, когда супруг стал проявлять к близким неожиданную агрессию. Жена не выдержала и подала на развод, только вот общего ребенка оставить у себя по-хорошему ей не удалось: мужчина не упускал случая, чтобы забрать мальчишку себе. Однажды во время прогулки его похитили, и у матери не было сомнений, чьих рук это дело. Однако отец невозмутимо заявил, что похищение она подстроила сама, чтобы спрятать от него сына. Прокуроры хотели бы схватиться за голову от кипящих в этой семейке страстей, но есть дела поважнее: они начинают серьезную проверку…
06.05.2014
В прокуратуру обратилась девушка, брата которой обвиняют в убийстве врача. Их мать недавно скончалась. В заключении причиной смерти значился инсульт, но патологоанатом установил, что женщину убили. Выяснилось, что врач бригады "скорой" неправильно поставил капельницу. Эта ошибка стоила пациентке жизни. Младший сын пошел разбираться с врачом, а через сутки его нашли с окровавленным ножом…


MI
Complete name : D:\Prokurorskaja.proverka.Maj.2014.SATRip\Prokurorskaja.proverka.05.05.2014.SATRip.avi
Format : AVI
Format/Info : Audio Video Interleave
File size : 636 MiB
Duration : 54mn 18s
Overall bit rate : 1 638 Kbps
Writing application : VirtualDubMod 1.5.10.3 | www.virtualdub-fr.org || (build 2550/release)
Writing library : VirtualDubMod build 2550/release

Video
ID : 0
Format : MPEG-4 Visual
Format profile : Advanced Simple@L5
Format settings, BVOP : 2
Format settings, QPel : No
Format settings, GMC : No warppoints
Format settings, Matrix : Default (MPEG)
Codec ID : XVID
Codec ID/Hint : XviD
Duration : 54mn 18s
Bit rate : 1 500 Kbps
Width : 704 pixels
Height : 416 pixels
Display aspect ratio : 1.692
Frame rate : 25.000 fps
Color space : YUV
Chroma subsampling : 4:2:0
Bit depth : 8 bits
Scan type : Progressive
Compression mode : Lossy
Bits/(Pixel*Frame) : 0.205
Stream size : 583 MiB (92%)
Writing library : XviD 1.2.1 (UTC 2008-12-04)

Audio
ID : 1
Format : MPEG Audio
Format version : Version 1
Format profile : Layer 3
Codec ID : 55
Codec ID/Hint : MP3
Duration : 54mn 18s
Bit rate mode : Constant
Bit rate : 128 Kbps
Channel(s) : 2 channels
Sampling rate : 48.0 KHz
Compression mode : Lossy
Stream size : 49.7 MiB (8%)
Alignment : Aligned on interleaves
Interleave, duration : 40 ms (1.00 video frame)
Interleave, preload duration : 504 ms
Writing library : LAME3.99r
Encoding settings : -m s -V 4 -q 2 -lowpass 17 -b 128


Скриншоты
http://s45.radikal.ru/i109/1405/4e/ccaeb9edc043.jpg
http://s52.radikal.ru/i137/1405/12/349639ee5956.jpg

http://s018.radikal.ru/i515/1405/6e/7f6727a8fb4d.jpg
http://s019.radikal.ru/i631/1405/86/1c14b735b0bc.jpg



Как закачать отдельный файл из торрента или докачать ранее пропущенные файлы торрента. http://static.rutracker.org/smiles/icon_arrow2.gif







[b]Пожалуйста, не уходите с раздачи, оставайтесь как можно дольше[/b] http://static.rutracker.org/smiles/icon_arrow2.gif






[b]
Добавлена серия от 06.05.2014
[/b]
Скриншоты
Похожие файлы
Загрузка / Обновление
КатегорияСериалы RSS лента
Просмотров269 раз (a)
Взят1 раз (a)
Файлы2
Размер1.25 GB (1,345,146,880 байт)
Добавлен
РаздалViKa  (Искать торренты)
Участники
Участники - Загрузка / Обновление
Просматривают Просматривают Загрузка...

-†- ¿? -†-
« Предыдущая - † Страница † - Следующая »

:: Список Комментариев
Нет комментариев.

 Нет комментариев
Вам запрещенно редактировать, создать или удалять комментарии.
shpv© 2007-2014
Страничка сформирована за 0.054 секунд.
Яндекс.Метрика Rambler's Top100