скачать торрент трекер Friends
 
 Главная  •  Торренты  •  Новые релизы  •  Форум  •   •  Персоны кино  •  Правила  •  ЧаВо

Язык интерфейса
Язык интерфейса:


Привет, Гость
[15] из [15]
Введите Логин:
Введите Пароль:
Регистрация
Восстановить Пароль

Линки
АнекдотыБанкоматВсе теги / меткиДополнительные услугиТехподдержка

Главное Меню
 Главная Торренты Релизы за сегодня Персоны кино Запросы / Предложения (3) Правила ЧаВо Проверка BB кодов Топ 10 Архив новостей Прошлые опросы Форматы файлов Группы Последние комментарии Техподдержка

:: Детали раздачи

Другая семья / Серии: 1-4 из 4 (Александр Кананович)

Скачать
Магнет
ПомощьКак скачать раздачу
Поделиться
Теги / Меткимелодрама
Постер
ОписаниеГод выпуска: 2014
Производство: "Тесей Продакшн" и Медиапрофсоюз
Жанр: Мелодрама
Продолжительность: 00:50:00
Субтитры: Нет

Режиссёр: Александр Кананович

В ролях: Анна Полупанова, Александр Никитин (IV), Ирина Шевчук, Светлана Тимофеева-Летуновская, Аня Зайцева (III), Ольга Клебанович, Виктория Жбанкова, Марта Павлович, Андрей Карако, Руслан Чернецкий, Юлианна Михневич, Ольга Бурлакова, Валерий Зеленский (II)

Описание: Кира беззаветно любит своего мужа Михаила. Вместе они прошли огонь и воду, и сейчас Михаил успешный бизнесмен, а Кира – счастливая жена, которая обеспечивает ему надежный тыл. Одно плохо – у пары нет детей. Кира бездетна. Но она научилась находить радость в заботе о муже, своей сестре и племяннице Машеньке.

Но неожиданно в счастливую жизнь Киры врывается ужасное событие – она узнает, что у Михаила есть дочь, которой уже 15 лет и, по сути, «другая семья» в далеком провинциальном городке. Оказывается, что Михаил часто навещает дочь Лену и ее мать Александру. Кира не знает, что Александра появилась в жизни Михаила еще до знакомства с ней и подозревает мужа в измене. Кире и в голову не приходит, что Михаил сам стал жертвой обмана со стороны Александры, которая хочет построить свое женское счастье, разрушив семью Михаила и Киры.





Доп. информация: Реклама отсутствует!





Релиз группы:: http://static.rutracker.org/pic/rgrs/logo.png





Все раздачи сериала: http://rutracker.org/forum/tracker.php?f=9&nm=Другая%20семья
Сэмпл: https://cloud.mail.ru/public/92e7fb8c0167/%D0%94%D1...Rip. by.simka.avi

Качество: SATRip
Формат: AVI
Видео кодек: XviD
Аудио кодек: MP3
Видео: 704x368, 25 fps, XviD, ~1444 kbps, 0.229 bit/pixel
Аудио: 48 kHz, MPEG Layer 3, 2 ch, 192 kbps

MI
Общее
Полное имя : Y:\Сериалы 2014\Другая семья (2014)\Другая семья.(01.seriya).2014.XviD.SATRip.by.simka.avi
Формат : AVI
Формат/Информация : Audio Video Interleave
Размер файла : 536 Мбайт
Продолжительность : 45 м.
Общий поток : 1646 Кбит/сек
Программа кодирования : VirtualDubModRus 1.5.10.2 (build 2542/release)
Библиотека кодирования : VirtualDubMod build 2542/release

Видео
Идентификатор : 0
Формат : MPEG-4 Visual
Профиль формата : Advanced Simple@L5
Параметр BVOP формата : 1
Параметр QPel формата : Нет
Параметр GMC формата : Без точки перехода
Параметр матрицы формата : Default (MPEG)
Идентификатор кодека : XVID
Идентификатор кодека/Подсказка : XviD
Продолжительность : 45 м.
Битрейт : 1444 Кбит/сек
Ширина : 704 пикселя
Высота : 368 пикселей
Соотношение сторон : 1,913
Частота кадров : 25,000 кадров/сек
Цветовое пространство : YUV
Субдискретизация насыщенности : 4:2:0
Битовая глубина : 8 бит
Тип развёртки : Прогрессивная
Метод сжатия : С потерями
Бит/(Пиксели*Кадры) : 0.223
Размер потока : 471 Мбайт (88%)
Библиотека кодирования : XviD 1.2.1 (UTC 2008-12-04)

Аудио
Идентификатор : 1
Формат : MPEG Audio
Версия формата : Version 1
Профиль формата : Layer 3
Режим : Joint stereo
Расширение режима : MS Stereo
Идентификатор кодека : 55
Идентификатор кодека/Подсказка : MP3
Продолжительность : 45 м.
Вид битрейта : Постоянный
Битрейт : 192 Кбит/сек
Каналы : 2 канала
Частота : 48,0 КГц
Метод сжатия : С потерями
Размер потока : 62,6 Мбайт (12%)
Выравнивание : Соединение по промежуткам
Продолжительность промежутка : 40 мс. (1,00 видеокадр)
Время предзагрузки промежутка : 504 мс.
Библиотека кодирования : LAME3.99r
Настройки программы : -m j -V 4 -q 2 -lowpass 18.6 -b 192


Скриншоты
http://firepic.org/?v=3.2014-05-02_xs6a7axq8039.png
http://firepic.org/?v=3.2014-05-02_ib0kpcfod8yn.png
http://firepic.org/?v=3.2014-05-02_3xespzf8ug4v.png
http://firepic.org/?v=3.2014-05-02_4jt3cradrltu.png
http://firepic.org/?v=3.2014-05-02_r8xu6m9x0dfo.png
http://firepic.org/?v=3.2014-05-02_3lmnrg0lptds.png
http://firepic.org/?v=3.2014-05-02_bewtpfd7d2r9.png


-------------

Внимание! Раздача ведётся путём добавления новых выпусков
При каждом добавлении создаётся новый торрент. Чтобы начать докачку нового выпуска, пользователям необходимо сделать следующее:
П остановить скачивание;
П удалить старый торрент у себя из клиента (старые выпуски удалять не надо);
П скачать новый торрент и запустить его у себя в клиенте вместо старого, при этом указать клиенту путь в старую папку куда и должно происходить скачивание новых выпусков;
П ваш клиент при запуске должен произвести хеширование (проверку) старой папки (если не производит сам - помогите ему сделать это), и будет докачивать только те выпуски, которых у вас ещё нет. Старые выпуски при этом не удаляются, а продолжают раздаваться!, Конец фильма!, Продолжения в понедельник если не доберется ПО http://static.rutracker.org/smiles/icon_biggrin.gif

П Eсли вы уже удалили старые выпуски, то предотвратить повторную закачку старых выпусков можно, отжав галочку в соответсвующих местах при запуске нового торрента.

Добавлена 3-я и 4-я серия
Похожие файлы
Загрузка / Обновление
КатегорияСериалы RSS лента
Просмотров134 раз (a)
Взят0 раз (a)
Файлы4
Размер2.22 GB (2,383,644,672 байт)
Добавлен
РаздалViKa  (Искать торренты)
Участники
Участники - Загрузка / Обновление
Просматривают Просматривают Загрузка...

-†- ¿? -†-
« Предыдущая - † Страница † - Следующая »

:: Список Комментариев
Нет комментариев.

 Нет комментариев
Вам запрещенно редактировать, создать или удалять комментарии.
shpv© 2007-2014
Страничка сформирована за 0.137 секунд.
Яндекс.Метрика Rambler's Top100